<?xml version="1.0" standalone="no"?>
<!DOCTYPE svg PUBLIC "-//W3C//DTD SVG 1.1//EN" "http://www.w3.org/Graphics/SVG/1.1/DTD/svg11.dtd" >
<svg xmlns="http://www.w3.org/2000/svg" xmlns:xlink="http://www.w3.org/1999/xlink" version="1.1">
<metadata>
Created by FontForge 20200511 at Sun Jun 25 20:55:07 2023
 By convertio
Glancyr (c) Freepik 2023
</metadata>
<defs>
<font id="Glancyr-Light" horiz-adv-x="600" >
  <font-face 
    font-family="Glancyr Light"
    font-weight="300"
    font-stretch="normal"
    units-per-em="1000"
    panose-1="0 0 0 0 0 0 0 0 0 0"
    ascent="750"
    descent="-250"
    x-height="500"
    cap-height="700"
    bbox="-192 -239 1042 1012"
    underline-thickness="50"
    underline-position="-125"
    unicode-range="U+0002-FB06"
  />
<missing-glyph horiz-adv-x="250" 
 />
    <glyph glyph-name="fi" unicode="fi" horiz-adv-x="610" 
d="M130 550q0 101 53.5 150.5t171.5 49.5q54 0 96 -10t70.5 -34t43.5 -63.5t15 -97.5h-87q0 65 -36 91t-105 26q-31 0 -55.5 -5.5t-40.5 -18.5t-24.5 -35t-8.5 -56v-47h357v-500h-93v413h-264v-413h-93v413h-110v87h110v50z" />
    <glyph glyph-name="fl" unicode="fl" horiz-adv-x="663" 
d="M130 550q0 101 56 150.5t182 49.5q57 0 102.5 -8.5t77 -29t48.5 -53.5t17 -82v-577h-93v559q0 61 -39 82t-116 21q-35 0 -61.5 -5.5t-44.5 -18.5t-27 -35t-9 -56v-47h250v-87h-250v-413h-93v413h-110v87h110v50z" />
    <glyph glyph-name="f_f" unicode="ff" horiz-adv-x="864" 
d="M130 550q0 101 41.5 150.5t133.5 49.5q42 0 75 -10t55.5 -34t34 -63.5t11.5 -97.5h-87q0 65 -22.5 91t-66.5 26q-20 0 -35.5 -5.5t-26 -18.5t-15.5 -35t-5 -56v-47h280v50q0 101 41.5 150.5t134.5 49.5q42 0 74.5 -10t55 -34t34 -63.5t11.5 -97.5h-87q0 65 -22.5 91
t-66.5 26q-20 0 -35 -5.5t-25.5 -18.5t-15.5 -35t-5 -56v-47h250v-87h-250v-413h-94v413h-280v-413h-93v413h-110v87h110v50z" />
    <glyph glyph-name="f_f_i" unicode="ffi" horiz-adv-x="983" 
d="M130 550q0 101 41.5 150.5t133.5 49.5q42 0 75 -10t55.5 -34t34 -63.5t11.5 -97.5h-87q0 65 -22.5 91t-66.5 26q-20 0 -35.5 -5.5t-26 -18.5t-15.5 -35t-5 -56v-47h280v50q0 101 53.5 150.5t171.5 49.5q54 0 96 -10t70.5 -34t43.5 -63.5t15 -97.5h-86q0 65 -36 91
t-105 26q-32 0 -56 -5.5t-40.5 -18.5t-24.5 -35t-8 -56v-47h356v-500h-93v413h-263v-413h-94v413h-280v-413h-93v413h-110v87h110v50z" />
    <glyph glyph-name="f_t" unicode="ft" horiz-adv-x="885" 
d="M130 550q0 101 41.5 150.5t133.5 49.5q42 0 75 -10t55.5 -34t34 -63.5t11.5 -97.5h-87q0 65 -22.5 91t-66.5 26q-20 0 -35.5 -5.5t-26 -18.5t-15.5 -35t-5 -56v-47h284l26 200h67v-200h257v-87h-257v-223q0 -21 2.5 -42t10.5 -37.5t24.5 -27t43.5 -10.5q18 0 34.5 5.5
t29 19t19.5 36t7 56.5h87q0 -58 -12.5 -97.5t-36 -63.5t-56.5 -34t-75 -10q-81 0 -126 42.5t-45 145.5v240h-284v-413h-93v413h-110v87h110v50z" />
    <glyph glyph-name=".notdef" horiz-adv-x="250" 
 />
    <glyph glyph-name=".null" horiz-adv-x="111" 
 />
    <glyph glyph-name=".null" horiz-adv-x="111" 
 />
    <glyph glyph-name="uni000D" unicode="&#xd;" horiz-adv-x="111" 
 />
    <glyph glyph-name="space" unicode=" " horiz-adv-x="260" 
 />
    <glyph glyph-name="A" unicode="A" horiz-adv-x="652" 
d="M274 700h105l293 -700h-105l-55 131h-372l-55 -131h-105zM475 221l-149 354l-148 -354h297z" />
    <glyph glyph-name="B" unicode="B" horiz-adv-x="705" 
d="M50 700h344q140 0 200.5 -49.5t60.5 -146.5q0 -50 -17 -87t-54 -63q49 -25 75 -63.5t26 -92.5q0 -49 -14 -86t-46.5 -62t-86 -37.5t-131.5 -12.5h-357v700zM397 395q34 0 62.5 4.5t49.5 16.5t32.5 33.5t11.5 54.5q0 54 -43 80t-109 26h-254v-215h250zM409 90q82 0 128 23
t46 85q0 27 -14.5 47t-39 33.5t-56.5 20t-66 6.5h-260v-215h262z" />
    <glyph glyph-name="C" unicode="C" horiz-adv-x="733" 
d="M398 -15q-187 0 -277.5 90t-90.5 276q0 185 85 274.5t259 89.5q80 0 142.5 -14t105 -45t65 -80t22.5 -119h-93q0 53 -21.5 85.5t-57 50.5t-79.5 24t-89 6q-65 0 -110 -16t-73.5 -49t-41 -84t-12.5 -122q0 -145 66.5 -210t205.5 -65q39 0 77.5 5.5t69.5 22t50 47.5t19 82
h93q0 -70 -22.5 -117.5t-63.5 -76.5t-99.5 -42t-129.5 -13z" />
    <glyph glyph-name="D" unicode="D" horiz-adv-x="708" 
d="M50 700h280q82 0 146.5 -22t109.5 -66t68.5 -109.5t23.5 -152.5t-23.5 -152.5t-68.5 -109.5t-109.5 -66t-146.5 -22h-280v700zM340 90q108 0 172.5 65.5t64.5 195.5q0 128 -64.5 193.5t-172.5 65.5h-193v-520h193z" />
    <glyph glyph-name="E" unicode="E" horiz-adv-x="623" 
d="M50 700h540v-90h-443v-215h403v-90h-403v-215h453v-90h-550v700z" />
    <glyph glyph-name="F" unicode="F" horiz-adv-x="607" 
d="M50 700h537v-90h-440v-215h400v-90h-400v-305h-97v700z" />
    <glyph glyph-name="G" unicode="G" horiz-adv-x="754" 
d="M351 -15q-153 0 -237 91t-84 275q0 185 85 274.5t259 89.5q80 0 142.5 -14t105 -45t65 -80t22.5 -119h-93q0 53 -21.5 85.5t-57 50.5t-79.5 24t-89 6q-65 0 -110 -16t-73.5 -49t-41 -84t-12.5 -122q0 -145 62.5 -210t174.5 -65q41 0 74.5 16t61 43t50 62t41.5 73h-219v86
h337v-357h-93v181q-22 -40 -50 -75.5t-61 -62.5t-72.5 -42.5t-86.5 -15.5z" />
    <glyph glyph-name="H" unicode="H" horiz-adv-x="717" 
d="M50 700h97v-305h423v305h97v-700h-97v305h-423v-305h-97v700z" />
    <glyph glyph-name="I" unicode="I" horiz-adv-x="197" 
d="M50 700h97v-700h-97v700z" />
    <glyph glyph-name="J" unicode="J" horiz-adv-x="576" 
d="M536 250q0 -75 -16.5 -125.5t-48.5 -81.5t-79 -44.5t-108 -13.5q-63 0 -112.5 13t-83 42t-51 76.5t-17.5 117.5h93q0 -51 14 -82t37.5 -47.5t55 -22t66.5 -5.5q37 0 65.5 8t48 26.5t30 50t10.5 77.5v461h96v-450z" />
    <glyph glyph-name="K" unicode="K" horiz-adv-x="613" 
d="M50 700h97v-700h-97v700zM613 0h-126l-340 350l340 350h126l-340 -350z" />
    <glyph glyph-name="L" unicode="L" horiz-adv-x="607" 
d="M50 700h97v-610h440v-90h-537v700z" />
    <glyph glyph-name="M" unicode="M" horiz-adv-x="897" 
d="M50 700h97l301 -564l302 564h97v-700h-97v504l-270 -504h-64l-269 504v-504h-97v700z" />
    <glyph glyph-name="N" unicode="N" horiz-adv-x="695" 
d="M50 700h97l401 -540v540h97v-700h-97l-401 541v-541h-97v700z" />
    <glyph glyph-name="O" unicode="O" horiz-adv-x="767" 
d="M30 350q0 180 87.5 272.5t265.5 92.5q180 0 267 -92t87 -273t-87 -273t-267 -92q-178 0 -265.5 92.5t-87.5 272.5zM132 350q0 -136 61.5 -204.5t189.5 -68.5t190 68.5t62 204.5t-62 204.5t-190 68.5q-130 0 -190.5 -69t-60.5 -204z" />
    <glyph glyph-name="P" unicode="P" horiz-adv-x="678" 
d="M50 700h313q76 0 130 -14.5t88.5 -44t50.5 -73t16 -101.5q0 -116 -66 -175t-219 -59h-216v-233h-97v700zM364 323q52 0 87 9t56.5 27t30.5 45t9 63t-9 62.5t-30.5 44.5t-56.5 27t-87 9h-217v-287h217z" />
    <glyph glyph-name="Q" unicode="Q" horiz-adv-x="767" 
d="M30 350q0 180 87.5 272.5t265.5 92.5q180 0 267 -92t87 -273q0 -250 -167 -329l59 -125l-79 -34l-63 132q-46 -9 -104 -9q-178 0 -265.5 92.5t-87.5 272.5zM132 350q0 -136 61.5 -204.5t189.5 -68.5q17 0 33 1t30 4l-94 200l79 34l97 -206q107 61 107 240
q0 136 -62 204.5t-190 68.5q-130 0 -190.5 -69t-60.5 -204z" />
    <glyph glyph-name="R" unicode="R" horiz-adv-x="678" 
d="M50 700h313q76 0 130 -13.5t88.5 -40.5t50.5 -66.5t16 -92.5q0 -99 -54.5 -152t-177.5 -61l220 -274h-120l-218 273h-151v-273h-97v700zM364 363q52 0 87 8t56.5 23.5t30.5 38.5t9 54t-9 54t-30.5 38.5t-56.5 23t-87 7.5h-217v-247h217z" />
    <glyph glyph-name="S" unicode="S" horiz-adv-x="663" 
d="M310 304q-60 13 -110 27t-86 37t-56 58.5t-20 89.5q0 106 71.5 152.5t226.5 46.5q68 0 121.5 -12.5t90.5 -40.5t57 -73.5t20 -111.5h-93q0 48 -16.5 76t-44.5 43t-64.5 19.5t-77.5 4.5q-54 0 -90.5 -6.5t-58.5 -19t-31.5 -31.5t-9.5 -43q0 -26 13.5 -44t39.5 -31.5
t64.5 -22.5t88.5 -17q70 -12 124 -27.5t90.5 -40t55 -61t18.5 -89.5q0 -107 -74 -154.5t-232 -47.5q-69 0 -124 12.5t-93.5 40.5t-59 73.5t-20.5 111.5h93q0 -49 17.5 -78t47 -44t68 -19.5t80.5 -4.5q99 0 147 25t48 79q0 39 -22 60.5t-55 33t-72 17t-72 12.5z" />
    <glyph glyph-name="T" unicode="T" horiz-adv-x="597" 
d="M250 610h-233v90h563v-90h-233v-610h-97v610z" />
    <glyph glyph-name="U" unicode="U" horiz-adv-x="691" 
d="M345 77q99 0 154 45t55 150v428h97v-414q0 -87 -22.5 -144.5t-63 -92.5t-97 -49.5t-123.5 -14.5t-123 14.5t-96.5 49.5t-63 92.5t-22.5 144.5v414h97v-428q0 -105 54.5 -150t153.5 -45z" />
    <glyph glyph-name="V" unicode="V" horiz-adv-x="639" 
d="M372 0h-105l-287 700h105l235 -572l234 572h105z" />
    <glyph glyph-name="W" unicode="W" horiz-adv-x="1000" 
d="M734 157l181 543h105l-234 -700h-105l-181 543l-181 -543h-105l-234 700h105l181 -543l181 543h105z" />
    <glyph glyph-name="X" unicode="X" horiz-adv-x="687" 
d="M687 0h-123l-220 271l-221 -271h-123l282 350l-282 350h123l221 -271l220 271h123l-282 -350z" />
    <glyph glyph-name="Y" unicode="Y" horiz-adv-x="637" 
d="M270 343l-270 357h118l200 -265l201 265h118l-270 -357v-343h-97v343z" />
    <glyph glyph-name="Z" unicode="Z" horiz-adv-x="620" 
d="M30 700h560v-90l-431 -520h431v-90h-560v90l431 520h-431v90z" />
    <glyph glyph-name="period" unicode="." horiz-adv-x="187" 
d="M30 48q0 32 15 48t48 16q34 0 49 -16t15 -48t-15 -47.5t-49 -15.5q-33 0 -48 15.5t-15 47.5z" />
    <glyph glyph-name="comma" unicode="," horiz-adv-x="197" 
d="M41 48q0 32 15 48t48 16t48 -16t15 -48q0 -31 -7 -61.5t-21 -57.5t-36.5 -48.5t-54.5 -34.5l-14 21q38 32 52 60.5t19 57.5q-33 1 -48.5 15.5t-15.5 47.5z" />
    <glyph glyph-name="zero" unicode="0" horiz-adv-x="628" 
d="M30 350q0 181 69.5 273t215.5 92q144 0 213.5 -92t69.5 -273t-69.5 -273t-213.5 -92q-146 0 -215.5 92t-69.5 273zM132 351q0 -137 44.5 -205.5t138.5 -68.5q182 0 182 274q0 272 -182 272q-51 0 -86 -17t-56.5 -51.5t-31 -85t-9.5 -118.5z" />
    <glyph glyph-name="one" unicode="1" horiz-adv-x="317" 
d="M170 610h-150v90h247v-700h-97v610z" />
    <glyph glyph-name="two" unicode="2" horiz-adv-x="607" 
d="M31 98q0 58 15 98t45.5 69t75.5 51t105 43q48 17 85.5 32t64 32.5t40 38.5t13.5 50q0 25 -8 45.5t-27 35t-49 22.5t-74 8q-37 0 -71.5 -4.5t-61 -19.5t-42.5 -44t-16 -78h-93q0 66 19 111.5t55 73.5t88.5 40.5t118.5 12.5q135 0 199 -52.5t64 -152.5q0 -49 -18.5 -83.5
t-52.5 -60.5t-82.5 -47t-108.5 -44q-33 -13 -67.5 -25.5t-62.5 -32t-45.5 -48t-17.5 -72.5v-7h452v-90h-543v98z" />
    <glyph glyph-name="three" unicode="3" horiz-adv-x="607" 
d="M296 395q55 0 88 10.5t50.5 27t23 38t5.5 42.5q0 57 -41.5 83.5t-114.5 26.5q-39 0 -71.5 -4.5t-55.5 -19.5t-35.5 -44t-12.5 -78h-93q0 66 17.5 111.5t51.5 73.5t83 40.5t113 12.5q133 0 196.5 -51t63.5 -149q0 -109 -82 -163q43 -23 69 -62t26 -97q0 -108 -66 -158
t-212 -50q-64 0 -115.5 12.5t-88 40.5t-56 73.5t-19.5 111.5h93q0 -49 14.5 -78t40 -44t60 -19.5t74.5 -4.5q42 0 74 4.5t54.5 17.5t34 35t11.5 57q0 20 -7.5 40t-27.5 36.5t-54.5 27t-87.5 10.5h-87v90h84z" />
    <glyph glyph-name="four" unicode="4" horiz-adv-x="607" 
d="M410 178h-390v90l390 432h97v-432h80v-90h-80v-178h-97v178zM410 268v299l-270 -299h270z" />
    <glyph glyph-name="five" unicode="5" horiz-adv-x="583" 
d="M511 700v-90h-351l-18 -195h142q60 0 109.5 -11t85 -35.5t55 -63.5t19.5 -96q0 -118 -63 -171t-196 -53q-67 0 -118.5 12.5t-86 40.5t-52 73.5t-17.5 111.5h93q0 -49 14.5 -78t39.5 -44t57 -19.5t68 -4.5q49 0 80 8.5t49 25t24.5 40.5t6.5 55q0 26 -9.5 48t-30.5 37.5
t-55 24.5t-84 9h-233l35 375h436z" />
    <glyph glyph-name="six" unicode="6" horiz-adv-x="642" 
d="M320 715q66 0 116.5 -12.5t85.5 -41t53 -74t18 -111.5h-94q0 53 -19 82.5t-46 43.5t-57.5 17.5t-53.5 3.5q-96 0 -141.5 -58.5t-49.5 -189.5q38 21 84.5 34t100.5 13q52 0 104.5 -10t95 -34t69 -63.5t26.5 -99.5q0 -53 -17 -95.5t-51.5 -72.5t-87 -46t-124.5 -16
q-158 0 -230 92.5t-72 272.5q0 186 71.5 275.5t218.5 89.5zM136 270q12 -102 58.5 -147.5t137.5 -45.5q53 0 87 12t54.5 31.5t28.5 43.5t8 49q0 29 -14 51t-39 36.5t-60 22t-77 7.5q-69 0 -112.5 -19t-71.5 -41z" />
    <glyph glyph-name="seven" unicode="7" horiz-adv-x="543" 
d="M30 700h483v-90l-314 -610h-109l315 610h-375v90z" />
    <glyph glyph-name="eight" unicode="8" horiz-adv-x="641" 
d="M54 510q0 103 65.5 154t201.5 51q266 0 266 -205q0 -53 -21.5 -90t-56.5 -62q45 -23 73.5 -63.5t28.5 -104.5q0 -101 -71.5 -153t-218.5 -52q-148 0 -219.5 52t-71.5 153q0 63 26.5 104t70.5 64q-33 24 -53 61t-20 91zM156 510q0 -57 39.5 -85t126.5 -28q163 0 163 113
q0 57 -39.5 85t-122.5 28q-48 0 -80 -7t-51.5 -21t-27.5 -35t-8 -50zM132 190q0 -55 45.5 -84t145.5 -29q96 0 141 29t45 84q0 57 -45.5 86t-141.5 29q-54 0 -90 -7.5t-58.5 -21.5t-32 -35.5t-9.5 -50.5z" />
    <glyph glyph-name="nine" unicode="9" horiz-adv-x="642" 
d="M321 -15q-65 0 -116 12.5t-85.5 41t-52.5 74t-18 111.5h93q0 -52 19 -82t46.5 -44t58 -17.5t53.5 -3.5q96 0 141.5 58.5t49.5 189.5q-38 -21 -84.5 -34t-101.5 -13q-51 0 -103.5 10t-95 34t-69 63.5t-26.5 99.5q0 107 68.5 168.5t211.5 61.5q158 0 230 -92.5t72 -272.5
q0 -186 -72 -275.5t-219 -89.5zM506 430q-12 102 -59 147.5t-137 45.5q-52 0 -86.5 -12t-55 -31.5t-28.5 -43.5t-8 -49q0 -29 14 -51t39 -36.5t60 -22t77 -7.5q69 0 112.5 19t71.5 41z" />
    <glyph glyph-name="A.ss01" horiz-adv-x="652" 
d="M274 700h105l293 -700h-105l-241 575l-241 -575h-105z" />
    <glyph glyph-name="E.ss01" horiz-adv-x="647" 
d="M30 700h587v-90h-587v90zM30 395h587v-90h-587v90zM30 90h587v-90h-587v90z" />
    <glyph glyph-name="D.ss01" horiz-adv-x="708" 
d="M50 0v90h290q108 0 172.5 65.5t64.5 195.5q0 128 -64.5 193.5t-172.5 65.5h-290v90h280q82 0 146.5 -22t109.5 -66t68.5 -109.5t23.5 -152.5t-23.5 -152.5t-68.5 -109.5t-109.5 -66t-146.5 -22h-280z" />
    <glyph glyph-name="K.ss01" horiz-adv-x="689" 
d="M147 700v-558l386 558h116l-423 -610h443v-90h-619v700h97z" />
    <glyph glyph-name="R.ss01" horiz-adv-x="689" 
d="M50 700h619v-90h-443l423 -610h-116l-386 558v-558h-97v700z" />
    <glyph glyph-name="O.ss01" horiz-adv-x="780" 
d="M30 350q0 181 88.5 273t271.5 92t271.5 -92t88.5 -273t-88.5 -273t-271.5 -92t-271.5 92t-88.5 273z" />
    <glyph glyph-name="M.ss01" horiz-adv-x="822" 
d="M50 700h97v-700h-97v700zM675 0v700h97v-700h-97zM363 575h96v-450h-96v450z" />
    <glyph glyph-name="W.ss01" horiz-adv-x="822" 
d="M772 0h-97v700h97v-700zM147 700v-700h-97v700h97zM459 0h-96v450h96v-450z" />
    <glyph glyph-name="o" unicode="o" horiz-adv-x="615" 
d="M30 250q0 131 68 198t209 67t209.5 -67t68.5 -198t-68.5 -198t-209.5 -67t-209 67t-68 198zM128 250q0 -88 44 -132.5t135 -44.5t135.5 44.5t44.5 132.5t-44.5 132.5t-135.5 44.5q-93 0 -136 -44.5t-43 -132.5z" />
    <glyph glyph-name="a" unicode="a" horiz-adv-x="560" 
d="M426 320q0 40 -14.5 62.5t-37 34t-48 14t-48.5 2.5q-24 0 -49.5 -2.5t-46.5 -13t-34.5 -32t-13.5 -58.5h-87q0 50 16 85.5t46 58.5t72.5 33.5t95.5 10.5q122 0 182.5 -47.5t60.5 -158.5v-309h-94v69q-7 -19 -20.5 -34.5t-35.5 -26.5t-53 -17t-74 -6q-49 0 -90 7
t-70.5 24.5t-46 47.5t-16.5 75q0 74 57 110.5t172 49.5l177 19v2zM258 230q-28 -3 -53 -9.5t-44.5 -17t-31 -25.5t-11.5 -37q0 -16 6 -30t21.5 -23.5t41.5 -15t66 -5.5q47 0 79.5 9.5t52.5 24.5t29.5 32.5t11.5 32.5v82z" />
    <glyph glyph-name="i" unicode="i" horiz-adv-x="193" 
d="M30 652q0 34 16 50.5t51 16.5t50.5 -16.5t15.5 -50.5q0 -33 -15.5 -50t-50.5 -17t-51 17t-16 50zM50 500h93v-500h-93v500z" />
    <glyph glyph-name="d" unicode="d" 
d="M457 78q-23 -43 -65.5 -68t-115.5 -25q-52 0 -97 17t-78 50.5t-52 83t-19 114.5q0 131 63 198t179 67q75 0 118.5 -23.5t66.5 -66.5v325h93v-750h-93v78zM128 251q0 -88 41 -133t122 -45q83 0 124.5 45t41.5 133q0 87 -41.5 131.5t-124.5 44.5q-46 0 -77.5 -11.5
t-50.5 -33.5t-27 -55t-8 -76z" />
    <glyph glyph-name="h" unicode="h" horiz-adv-x="590" 
d="M50 0v750h93v-322q26 42 70.5 64.5t115.5 22.5q114 0 167.5 -55.5t53.5 -178.5v-281h-93v275q0 34 -6.5 62t-23 48t-46 31t-74.5 11q-81 0 -122.5 -44.5t-41.5 -131.5v-251h-93z" />
    <glyph glyph-name="e" unicode="e" horiz-adv-x="583" 
d="M553 221h-424q8 -86 54.5 -120t125.5 -34q33 0 61 8t48 22.5t31.5 33.5t11.5 40l86 -1q0 -83 -60.5 -134t-177.5 -51q-141 0 -210 67.5t-69 198.5q0 128 67 196t194 68q140 0 201 -70t61 -204v-20zM459 294q-4 38 -17.5 64.5t-35 43t-49.5 24t-62 7.5q-63 0 -107.5 -34.5
t-55.5 -104.5h327z" />
    <glyph glyph-name="s" unicode="s" horiz-adv-x="547" 
d="M32 371q0 76 60 110t170 34q128 0 188.5 -43.5t60.5 -141.5h-86q0 60 -46 81.5t-131 21.5q-41 0 -66.5 -5.5t-40 -14t-19.5 -19.5t-5 -22q0 -12 8.5 -23t27.5 -21t50.5 -19t77.5 -18q54 -10 98 -20t74.5 -26.5t47 -43t16.5 -69.5q0 -80 -58.5 -113.5t-170.5 -33.5
q-135 0 -196.5 43.5t-61.5 141.5h87q0 -29 13.5 -48.5t37.5 -31.5t57 -17.5t73 -5.5q74 0 104 17t30 45q0 21 -11.5 32.5t-33.5 19t-54.5 13.5t-74.5 14q-41 8 -81.5 18.5t-72.5 28.5t-52 46t-20 70z" />
    <glyph glyph-name="n" unicode="n" horiz-adv-x="590" 
d="M457 0v275q0 34 -6.5 62t-23 48t-46 31t-74.5 11q-81 0 -122.5 -44.5t-41.5 -131.5v-251h-93v500h93v-72q26 42 70.5 64.5t115.5 22.5q114 0 167.5 -55.5t53.5 -178.5v-281h-93z" />
    <glyph glyph-name="b" unicode="b" horiz-adv-x="580" 
d="M50 0v750h93v-323q23 42 64.5 65t110.5 23q52 0 94.5 -17t73 -50.5t47.5 -83t17 -114.5t-19.5 -114.5t-52 -83t-75 -50.5t-89.5 -17q-68 0 -108.5 24.5t-62.5 66.5v-76h-93zM452 251q0 87 -36 131.5t-117 44.5q-76 0 -116 -44.5t-40 -131.5q0 -88 40 -133t116 -45
q69 0 111 45t42 133z" />
    <glyph glyph-name="c" unicode="c" horiz-adv-x="564" 
d="M298 515q60 0 105.5 -16.5t76.5 -46t46.5 -68.5t15.5 -84h-87q0 55 -38.5 91t-119.5 36q-37 0 -68.5 -9t-53.5 -30t-34.5 -54.5t-12.5 -81.5q0 -51 13.5 -85t37 -55t55.5 -30t68 -9q81 0 118 36t37 91h87q0 -45 -14.5 -84t-44.5 -68.5t-76 -46t-109 -16.5q-132 0 -201 67
t-69 198q0 133 64 199t204 66z" />
    <glyph glyph-name="f" unicode="f" horiz-adv-x="491" 
d="M130 550q0 101 41.5 150.5t133.5 49.5q42 0 75 -10t55.5 -34t34 -63.5t11.5 -97.5h-87q0 65 -22.5 91t-66.5 26q-20 0 -35.5 -5.5t-26 -18.5t-15.5 -35t-5 -56v-47h250v-87h-250v-413h-93v413h-110v87h110v50z" />
    <glyph glyph-name="g" unicode="g" horiz-adv-x="584" 
d="M547 543q-24 14 -53.5 21.5t-56.5 7.5q-12 0 -25 -3t-25 -10t-21.5 -19t-14.5 -29q177 -22 177 -171q0 -88 -57.5 -131.5t-180.5 -43.5q-92 0 -134 -5t-42 -29q0 -10 9.5 -17t31.5 -12t57 -9.5t87 -9.5q56 -6 102.5 -11t80.5 -18.5t53 -40t19 -75.5q0 -77 -61.5 -112.5
t-187.5 -35.5q-74 0 -126 10.5t-85 33t-48.5 57.5t-15.5 84h87q0 -59 47 -81t139 -22q38 0 69 3t53 10.5t34.5 20.5t12.5 33q0 23 -12 33t-36 14t-59.5 5.5t-81.5 7.5q-44 5 -88.5 9.5t-80.5 16.5t-59 34.5t-23 62.5q0 36 18.5 57t49.5 32q-61 44 -61 129q0 59 24.5 93.5
t63 52.5t86 23.5t94.5 5.5q7 55 40 92.5t93 37.5q31 0 58 -7.5t49 -16.5v-78zM137 341q0 -51 40.5 -72.5t110.5 -21.5q73 0 107.5 21.5t34.5 72.5q0 49 -38 70.5t-110 21.5q-82 0 -113.5 -21.5t-31.5 -70.5z" />
    <glyph glyph-name="j" unicode="j" horiz-adv-x="347" 
d="M184 652q0 34 15.5 50.5t50.5 16.5t51 -16.5t16 -50.5q0 -33 -16 -50t-51 -17t-50.5 17t-15.5 50zM297 17q0 -127 -45.5 -187t-132.5 -60q-45 0 -76.5 14.5t-51.5 40.5t-29 61.5t-9 76.5h84q0 -57 22.5 -84t62.5 -27q43 0 62.5 37t19.5 100v511h93v-483z" />
    <glyph glyph-name="k" unicode="k" horiz-adv-x="553" 
d="M50 0v750h93v-750h-93zM553 0h-126l-284 250l284 250h126l-284 -250z" />
    <glyph glyph-name="l" unicode="l" horiz-adv-x="193" 
d="M50 0v750h93v-750h-93z" />
    <glyph glyph-name="m" unicode="m" horiz-adv-x="897" 
d="M407 0v301q0 24 -5.5 47t-19.5 40.5t-38 28t-62 10.5q-69 0 -104 -44.5t-35 -131.5v-251h-93v500h93v-71q24 41 64.5 63.5t102.5 22.5q61 0 102 -22t63 -64q23 37 64.5 61.5t107.5 24.5q111 0 160.5 -55.5t49.5 -178.5v-281h-94v275q0 34 -5.5 62t-19.5 48t-38 31t-62 11
q-34 0 -60 -10.5t-43 -28t-26 -40.5t-9 -47v-301h-93z" />
    <glyph glyph-name="p" unicode="p" horiz-adv-x="580" 
d="M50 -200v700h93v-73q23 42 64.5 65t110.5 23q52 0 94.5 -17t73 -50.5t47.5 -83t17 -114.5t-19.5 -114.5t-52 -83t-75 -50.5t-89.5 -17q-68 0 -108.5 24.5t-62.5 66.5v-276h-93zM452 251q0 87 -36 131.5t-117 44.5q-76 0 -116 -44.5t-40 -131.5q0 -88 40 -133t116 -45
q69 0 111 45t42 133z" />
    <glyph glyph-name="q" unicode="q" 
d="M457 78q-23 -43 -65.5 -68t-115.5 -25q-52 0 -97 17t-78 50.5t-52 83t-19 114.5q0 131 63 198t179 67q75 0 118.5 -23.5t66.5 -66.5v75h93v-700h-93v278zM128 251q0 -88 41 -133t122 -45q83 0 124.5 45t41.5 133q0 87 -41.5 131.5t-124.5 44.5q-46 0 -77.5 -11.5
t-50.5 -33.5t-27 -55t-8 -76z" />
    <glyph glyph-name="r" unicode="r" horiz-adv-x="508" 
d="M50 0v500h93v-71q24 41 63 63.5t96 22.5q186 0 186 -217h-87q0 58 -26 93.5t-91 35.5q-66 0 -103.5 -44.5t-37.5 -131.5v-251h-93z" />
    <glyph glyph-name="t" unicode="t" horiz-adv-x="528" 
d="M149 413h-129v87h129l27 200h67v-200h257v-87h-257v-223q0 -21 2.5 -42t10.5 -37.5t24 -27t43 -10.5q38 0 64.5 25t26.5 92h87q0 -58 -12.5 -97.5t-36 -63.5t-57 -34t-74.5 -10q-40 0 -72 10t-54.5 32.5t-34 58.5t-11.5 87v240z" />
    <glyph glyph-name="u" unicode="u" horiz-adv-x="590" 
d="M133 500v-275q0 -34 6.5 -62t23 -48t46 -31t74.5 -11q81 0 122.5 44.5t41.5 131.5v251h93v-500h-93v72q-26 -42 -70.5 -64.5t-115.5 -22.5q-114 0 -167.5 55.5t-53.5 178.5v281h93z" />
    <glyph glyph-name="v" unicode="v" horiz-adv-x="496" 
d="M-20 500h103l165 -382l165 382h103l-217 -500h-102z" />
    <glyph glyph-name="w" unicode="w" horiz-adv-x="809" 
d="M-20 500h103l135 -363l135 363h103l135 -362l136 362h102l-186 -500h-103l-135 362l-136 -362h-102z" />
    <glyph glyph-name="x" unicode="x" horiz-adv-x="565" 
d="M565 0h-117l-165 185l-166 -185h-117l224 250l-224 250h117l166 -185l165 185h117l-224 -250z" />
    <glyph glyph-name="y" unicode="y" horiz-adv-x="538" 
d="M367 14q-20 -57 -36.5 -102.5t-38.5 -77t-53.5 -48t-81.5 -16.5q-38 0 -65.5 14.5t-45 40.5t-26 61.5t-8.5 76.5h83q0 -34 5 -55.5t14 -34t20.5 -17t24.5 -4.5q19 0 33 8.5t25 24.5t19.5 37t17.5 47l13 37l-265 494h106l201 -373l130 373h99z" />
    <glyph glyph-name="z" unicode="z" horiz-adv-x="497" 
d="M30 500h437v-87l-308 -326h308v-87h-437v87l308 326h-308v87z" />
    <glyph glyph-name="a.ss02" 
d="M457 78q-23 -43 -65.5 -68t-115.5 -25q-52 0 -97 17t-78 50.5t-52 83t-19 114.5q0 131 63 198t179 67q75 0 118.5 -23.5t66.5 -66.5v75h93v-500h-93v78zM128 251q0 -88 41 -133t122 -45q83 0 124.5 45t41.5 133q0 87 -41.5 131.5t-124.5 44.5q-46 0 -77.5 -11.5
t-50.5 -33.5t-27 -55t-8 -76z" />
    <glyph glyph-name="g.ss02" horiz-adv-x="590" 
d="M30 268q0 121 63 182.5t179 61.5q75 0 118.5 -21.5t66.5 -61.5v68h93v-472q0 -67 -16 -112t-48 -72.5t-79.5 -39t-109.5 -11.5q-132 0 -192 43.5t-60 141.5h87q0 -29 11 -49t32 -32t51 -17t67 -5q36 0 66 6.5t52 22.5t34 43.5t12 69.5v96q-23 -38 -65.5 -61.5
t-115.5 -23.5q-52 0 -97 15.5t-78 46t-52 76t-19 105.5zM128 269q0 -76 41 -116t122 -40q83 0 124.5 40t41.5 116q0 154 -166 154q-92 0 -127.5 -39t-35.5 -115z" />
    <glyph glyph-name="y.ss02" horiz-adv-x="586" 
d="M137 500v-249q0 -31 6.5 -56.5t23 -43.5t46 -28t74.5 -10q164 0 164 139v8h2v235h93v-472q0 -67 -16 -112t-48 -72t-79.5 -38.5t-109.5 -11.5q-132 0 -192 43.5t-60 141.5h87q0 -59 43 -81.5t118 -22.5q36 0 66 6.5t52 22.5t34 44t12 70v89q-26 -37 -71 -57t-117 -20
q-114 0 -167.5 51.5t-53.5 163.5v260h93z" />
    <glyph glyph-name="r.ss01" horiz-adv-x="457" 
d="M50 0v500h387v-87h-294v-413h-93z" />
    <glyph glyph-name="a.ss01" horiz-adv-x="553" 
d="M410 344l-283 -344h-120l340 413h-304v87h460v-500h-93v344z" />
    <glyph glyph-name="k.ss01" horiz-adv-x="546" 
d="M143 156l283 344h120l-340 -413h304v-87h-460v500h93v-344z" />
    <glyph glyph-name="o.ss01" horiz-adv-x="615" 
d="M30 250q0 131 68 198t209 67t209.5 -67t68.5 -198t-68.5 -198t-209.5 -67t-209 67t-68 198z" />
    <glyph glyph-name="hyphen" unicode="-" horiz-adv-x="320" 
d="M30 271h260v-67h-260v67z" />
    <glyph glyph-name="plus" unicode="+" horiz-adv-x="360" 
d="M30 314h117v117h66v-117h117v-67h-117v-116h-66v116h-117v67z" />
    <glyph glyph-name="asterisk" unicode="*" horiz-adv-x="510" 
d="M289 750l-6 -195l185 40l12 -66l-178 -28l112 -151l-56 -37l-103 157l-103 -157l-56 37l112 151l-178 28l12 66l186 -40l-6 195h67z" />
    <glyph glyph-name="asciicircum" unicode="^" horiz-adv-x="442" 
d="M257 700l155 -375h-72l-119 288l-119 -288h-72l155 375h72z" />
    <glyph glyph-name="ampersand" unicode="&#x26;" horiz-adv-x="792" 
d="M591 159q30 30 49 75t19 110v17h90v-12q0 -59 -18 -126t-66 -123l127 -100h-131l-59 45q-43 -28 -100 -44t-133 -16q-96 0 -160.5 13t-104.5 39t-57 64.5t-17 88.5q0 39 11 68t30 50.5t45 37t56 25.5q-29 28 -52.5 65.5t-23.5 86.5q0 42 12.5 77.5t40 61t71 39.5
t104.5 14q122 0 180.5 -51.5t58.5 -148.5q0 -45 -16 -75.5t-42.5 -51t-61 -33.5t-72.5 -22zM283 398q45 9 78.5 18t56 21.5t33.5 30t11 43.5q0 54 -34.5 83t-103.5 29q-39 0 -64 -8.5t-38.5 -23t-18.5 -33t-5 -39.5q0 -42 26 -70t59 -51zM268 300q-2 2 -4.5 3t-4.5 3
q-64 -16 -95.5 -40t-31.5 -74q0 -28 11 -49.5t38.5 -36t74.5 -22t119 -7.5q26 0 65 6t79 25z" />
    <glyph glyph-name="parenleft" unicode="(" horiz-adv-x="321" 
d="M97 265q0 -69 13 -142.5t37.5 -134t61 -99.5t82.5 -39v-60q-51 0 -90.5 23.5t-68.5 62.5t-48.5 89t-31.5 103.5t-17 106t-5 95.5t5 95.5t17 106t31.5 103.5t48.5 89t68.5 62.5t90.5 23.5v-60q-46 0 -82.5 -39t-61 -100.5t-37.5 -137t-13 -148.5z" />
    <glyph glyph-name="parenright" unicode=")" horiz-adv-x="321" 
d="M224 265q0 73 -13 148.5t-37.5 137t-60.5 100.5t-83 39v60q51 0 90.5 -23.5t68.5 -62.5t48.5 -89t31.5 -103.5t17 -106t5 -95.5t-5 -95.5t-17 -106t-31.5 -103.5t-48.5 -89t-68.5 -62.5t-90.5 -23.5v60q47 0 83 39t60.5 99.5t37.5 134t13 142.5z" />
    <glyph glyph-name="braceleft" unicode="{" horiz-adv-x="404" 
d="M219 497q0 -92 -21 -147.5t-63 -82.5q42 -27 63 -83t21 -153q0 -59 11.5 -97t34 -59.5t55 -30t74.5 -8.5v-60q-60 0 -105.5 14t-75.5 45t-45.5 81.5t-15.5 124.5q0 62 -9.5 100t-27.5 59t-44.5 28.5t-60.5 7.5v60q34 0 60.5 8t44.5 30t27.5 59.5t9.5 96.5
q0 72 15.5 121.5t45.5 80.5t75.5 44.5t105.5 13.5v-60q-42 0 -74.5 -9t-55 -31.5t-34 -59.5t-11.5 -93z" />
    <glyph glyph-name="bar" unicode="|" horiz-adv-x="127" 
d="M30 750h67v-950h-67v950z" />
    <glyph glyph-name="braceright" unicode="}" horiz-adv-x="404" 
d="M185 497q0 56 -11.5 93t-34 59.5t-55 31.5t-74.5 9v60q60 0 105.5 -13.5t75.5 -44.5t45.5 -80.5t15.5 -121.5q0 -59 9.5 -96.5t27.5 -59.5t44.5 -30t60.5 -8v-60q-34 0 -60.5 -7.5t-44.5 -28.5t-27.5 -59t-9.5 -100q0 -74 -15.5 -124.5t-45.5 -81.5t-75.5 -45t-105.5 -14
v60q42 0 74.5 8.5t55 30t34 59.5t11.5 97q0 97 21 153t63 83q-42 27 -63 82.5t-21 147.5z" />
    <glyph glyph-name="bracketleft" unicode="[" horiz-adv-x="220" 
d="M30 750h160v-67h-93v-816h93v-67h-160v950z" />
    <glyph glyph-name="bracketright" unicode="]" horiz-adv-x="220" 
d="M30 -200v67h93v816h-93v67h160v-950h-160z" />
    <glyph glyph-name="quoteleft" unicode="&#x2018;" horiz-adv-x="170" 
d="M131 552q0 -51 -50 -51q-27 0 -39 13t-12 38t5.5 49.5t17 46t30 39t43.5 27.5l11 -17q-30 -26 -42 -48.5t-15 -45.5q51 -1 51 -51z" />
    <glyph glyph-name="quoteright" unicode="&#x2019;" horiz-adv-x="170" 
d="M39 663q0 51 50 51q27 0 39 -12.5t12 -38.5q0 -25 -5.5 -49.5t-17 -46t-29.5 -38.5t-44 -28l-11 17q30 26 42 49t15 46q-51 0 -51 50z" />
    <glyph glyph-name="quotedblleft" unicode="&#x201c;" horiz-adv-x="324" 
d="M286 552q0 -51 -51 -51t-51 51q0 25 5.5 49.5t17.5 46t30 39t43 27.5l11 -17q-30 -26 -41.5 -48.5t-14.5 -45.5q51 -1 51 -51zM131 552q0 -51 -50 -51q-27 0 -39 13t-12 38t5.5 49.5t17 46t30 39t43.5 27.5l11 -17q-30 -26 -42 -48.5t-15 -45.5q51 -1 51 -51z" />
    <glyph glyph-name="quotedblright" unicode="&#x201d;" horiz-adv-x="324" 
d="M39 663q0 51 50 51q27 0 39 -12.5t12 -38.5q0 -25 -5.5 -49.5t-17 -46t-29.5 -38.5t-44 -28l-11 17q30 26 42 49t15 46q-51 0 -51 50zM193 663q0 26 12 38.5t39 12.5q50 0 50 -51q0 -25 -5.5 -49.5t-17 -46t-29.5 -38.5t-43 -28l-12 17q31 26 42.5 49t14.5 46
q-51 0 -51 50z" />
    <glyph glyph-name="quotesinglbase" unicode="&#x201a;" horiz-adv-x="170" 
d="M39 38q0 49 50 49t50 -49q0 -25 -5.5 -49.5t-17 -46.5t-29.5 -39t-43 -27l-11 16q30 26 42 49t15 47q-26 0 -38.5 11.5t-12.5 38.5z" />
    <glyph glyph-name="quotedblbase" unicode="&#x201e;" horiz-adv-x="324" 
d="M39 39q0 50 50 50q27 0 39 -12.5t12 -37.5t-5.5 -49.5t-17 -46t-29.5 -39t-44 -27.5l-11 16q30 26 42 49t15 46q-26 1 -38.5 12.5t-12.5 38.5zM193 39q0 25 12 37.5t39 12.5q50 0 50 -50q0 -25 -5.5 -49.5t-17 -46t-29.5 -39t-43 -27.5l-12 16q31 26 42.5 49t14.5 46
q-26 1 -38.5 12.5t-12.5 38.5z" />
    <glyph glyph-name="underscore" unicode="_" horiz-adv-x="390" 
d="M-30 -117h450v-66h-450v66z" />
    <glyph glyph-name="endash" unicode="&#x2013;" horiz-adv-x="433" 
d="M30 271h340v-67h-340v67z" />
    <glyph glyph-name="slash" unicode="/" horiz-adv-x="411" 
d="M337 700h74l-337 -700h-74z" />
    <glyph glyph-name="backslash" unicode="\" horiz-adv-x="411" 
d="M337 0l-337 700h74l337 -700h-74z" />
    <glyph glyph-name="colon" unicode=":" horiz-adv-x="187" 
d="M30 398q0 32 15 48t48 16q34 0 49 -16t15 -48t-15 -47.5t-49 -15.5q-33 0 -48 15.5t-15 47.5zM30 48q0 32 15 48t48 16q34 0 49 -16t15 -48t-15 -47.5t-49 -15.5q-33 0 -48 15.5t-15 47.5z" />
    <glyph glyph-name="semicolon" unicode=";" horiz-adv-x="197" 
d="M35 398q0 32 15 48t49 16q33 0 48 -16t15 -48t-15 -47.5t-48 -15.5q-34 0 -49 15.5t-15 47.5zM41 48q0 32 15 48t48 16t48 -16t15 -48q0 -31 -7 -61.5t-21 -57.5t-36.5 -48.5t-54.5 -34.5l-14 21q38 32 52 60.5t19 57.5q-33 1 -48.5 15.5t-15.5 47.5z" />
    <glyph glyph-name="less" unicode="&#x3c;" horiz-adv-x="435" 
d="M30 345l375 155v-72l-288 -119l288 -119v-72l-375 155v72z" />
    <glyph glyph-name="greater" unicode="&#x3e;" horiz-adv-x="435" 
d="M405 273l-375 -155v72l288 119l-288 119v72l375 -155v-72z" />
    <glyph glyph-name="equal" unicode="=" horiz-adv-x="360" 
d="M30 397h300v-67h-300v67zM30 211h300v-67h-300v67z" />
    <glyph glyph-name="exclam" unicode="!" horiz-adv-x="193" 
d="M143 700l-10 -460h-73l-10 460h93zM30 52q0 33 16 49.5t51 16.5t50.5 -16.5t15.5 -49.5q0 -34 -15.5 -50.5t-50.5 -16.5t-51 16.5t-16 50.5z" />
    <glyph glyph-name="question" unicode="?" horiz-adv-x="554" 
d="M170 240q0 51 18.5 83.5t46.5 54t61 35.5t61 29t46.5 34t18.5 51q0 44 -30 70t-105 26q-32 0 -61.5 -4.5t-52.5 -19.5t-36.5 -44t-13.5 -78h-93q0 66 17.5 111.5t50 73.5t80 40.5t107.5 12.5q123 0 181 -46t58 -136q0 -50 -20.5 -81t-50.5 -52t-66 -35.5t-66 -30.5
t-50.5 -37.5t-20.5 -56.5h-80zM150 52q0 33 16 49.5t51 16.5t50.5 -16.5t15.5 -49.5q0 -34 -15.5 -50.5t-50.5 -16.5t-51 16.5t-16 50.5z" />
    <glyph glyph-name="quotesingle" unicode="'" horiz-adv-x="127" 
d="M30 700h67l-10 -247h-47z" />
    <glyph glyph-name="quotedbl" unicode="&#x22;" horiz-adv-x="306" 
d="M30 700h67l-10 -247h-47zM179 700h67l-10 -247h-47z" />
    <glyph glyph-name="numbersign" unicode="#" horiz-adv-x="614" 
d="M31 500h186l68 200h71l-68 -200h131l67 200h71l-67 -200h94v-67h-117l-64 -191h181v-66h-204l-59 -176h-71l59 176h-131l-59 -176h-71l59 176h-76v66h99l65 191h-164v67zM332 242l64 191h-130l-65 -191h131z" />
    <glyph glyph-name="at" unicode="@" horiz-adv-x="918" 
d="M258 291q0 100 51.5 151.5t142.5 51.5q51 0 81.5 -18t46.5 -50v56h80v-214q0 -45 19.5 -66.5t47.5 -21.5q26 0 41.5 10t23 29t9.5 46.5t2 61.5q0 86 -25 145.5t-70 97t-108 54t-140 16.5q-78 0 -141.5 -24.5t-108.5 -69.5t-70 -108t-25 -140q0 -76 24 -144.5t69 -120
t110.5 -81.5t149.5 -30q48 0 88 8t68.5 23.5t44 37t15.5 48.5h74q0 -42 -15 -72.5t-39 -51.5t-55 -34.5t-63.5 -21t-63.5 -10t-55 -2.5q-101 0 -182 35t-137.5 95.5t-87 142.5t-30.5 176t31 171.5t87.5 132.5t135.5 85t176 30q96 0 175 -24.5t135 -72.5t87 -119t31 -165
q0 -64 -11 -107t-32 -69.5t-51 -37.5t-69 -11q-55 0 -87 24.5t-46 60.5q-12 -46 -44 -75.5t-94 -29.5q-43 0 -79 13t-62 38.5t-40.5 63.5t-14.5 87zM343 292q0 -63 31.5 -95.5t90.5 -32.5q115 0 115 126q0 128 -117 128q-66 0 -93 -31.5t-27 -94.5z" />
    <glyph glyph-name="dollar" unicode="$" horiz-adv-x="663" 
d="M298 -14q-62 2 -112 16t-84.5 42t-53 72t-18.5 107h93q0 -43 14 -70.5t37.5 -43.5t55.5 -23t68 -9v230q-57 12 -105 26.5t-82.5 37.5t-53.5 57.5t-19 87.5q0 99 63 146t197 52v76h67v-76q61 -2 109.5 -16t82 -42.5t51 -72.5t17.5 -106h-93q0 42 -13 69t-36 43t-53 22.5
t-65 7.5v-218q65 -11 115 -27t84 -40.5t51.5 -60t17.5 -86.5q0 -100 -64.5 -148t-203.5 -53v-146h-67v146zM298 619q-90 -3 -124.5 -28.5t-34.5 -70.5q0 -46 40.5 -69t118.5 -38v206zM365 77q166 7 166 104q0 31 -14.5 51t-38.5 32.5t-53.5 19t-59.5 11.5v-218z" />
    <glyph glyph-name="Euro" unicode="&#x20ac;" horiz-adv-x="816" 
d="M482 -15q-158 0 -247 64t-113 196h-112v66h104v80h-104v66h112q22 131 105 194.5t230 63.5q80 0 142.5 -14t105.5 -45t65 -80t22 -119h-93q0 53 -21.5 85.5t-56.5 50.5t-79 24t-89 6q-103 0 -157.5 -39.5t-71.5 -126.5h123v-66h-131q-1 -10 -1 -19.5v-19.5v-21t1 -20h131
v-66h-120q22 -88 86 -128t174 -40q39 0 77.5 5.5t69.5 22t50 47.5t19 82h93q0 -70 -22.5 -117.5t-63.5 -76.5t-99 -42t-129 -13z" />
    <glyph glyph-name="percent" unicode="%" horiz-adv-x="806" 
d="M30 531q0 184 154 184q153 0 153 -184q0 -186 -153 -186q-154 0 -154 186zM551 700h76l-397 -700h-76zM102 531q0 -119 82 -119q81 0 81 119q0 117 -81 117q-45 0 -63.5 -29t-18.5 -88zM469 171q0 184 154 184q153 0 153 -184q0 -186 -153 -186q-154 0 -154 186zM541 171
q0 -119 82 -119q81 0 81 119q0 117 -81 117q-45 0 -63.5 -29t-18.5 -88z" />
    <glyph glyph-name="emdash" unicode="&#x2014;" horiz-adv-x="760" 
d="M30 271h700v-67h-700v67z" />
    <glyph glyph-name="trademark" unicode="&#x2122;" horiz-adv-x="932" 
d="M168 686h-137v61h340v-61h-137v-359h-66v359zM417 747h71l171 -322l172 322h70v-420h-70v278l-149 -278h-46l-148 277v-277h-71v420z" />
    <glyph glyph-name="registered" unicode="&#xae;" horiz-adv-x="790" 
d="M30 350q0 82 26 149.5t74 115.5t115.5 74t149.5 26t149.5 -26t115.5 -74t74 -115.5t26 -149.5t-26 -149.5t-74 -115.5t-115.5 -74t-149.5 -26t-149.5 26t-115.5 74t-74 115.5t-26 149.5zM102 350q0 -67 21 -122t59.5 -94t92.5 -60.5t120 -21.5t120 21.5t92.5 60.5
t59.5 94t21 122t-21 122t-59.5 94t-92.5 60.5t-120 21.5t-120 -21.5t-92.5 -60.5t-59.5 -94t-21 -122zM260 530h158q79 0 112 -27.5t33 -82.5q0 -48 -25 -75.5t-83 -33.5l104 -131h-74l-102 130h-62v-130h-61v350zM418 365q48 0 65.5 14t17.5 41q0 28 -17.5 41.5t-65.5 13.5
h-97v-110h97z" />
    <glyph glyph-name="copyright" unicode="&#xa9;" horiz-adv-x="790" 
d="M30 350q0 82 26 149.5t74 115.5t115.5 74t149.5 26t149.5 -26t115.5 -74t74 -115.5t26 -149.5t-26 -149.5t-74 -115.5t-115.5 -74t-149.5 -26t-149.5 26t-115.5 74t-74 115.5t-26 149.5zM102 350q0 -67 21 -122t59.5 -94t92.5 -60.5t120 -21.5t120 21.5t92.5 60.5
t59.5 94t21 122t-21 122t-59.5 94t-92.5 60.5t-120 21.5t-120 -21.5t-92.5 -60.5t-59.5 -94t-21 -122zM407 167q-186 0 -186 183q0 182 174 182q81 0 125 -29.5t44 -99.5h-61q0 22 -9.5 35.5t-25 21t-35.5 10t-40 2.5q-58 0 -81.5 -29t-23.5 -93q0 -65 29.5 -94t91.5 -29
q17 0 34.5 2t31 9t22 19.5t8.5 33.5h61q0 -35 -11.5 -58.5t-32 -38t-50 -21t-65.5 -6.5z" />
    <glyph glyph-name="cent" unicode="&#xa2;" horiz-adv-x="564" 
d="M257 -13q-111 11 -169 77t-58 186q0 123 54.5 188.5t172.5 74.5v212h67v-211q54 -4 94.5 -22t68 -46.5t41.5 -66t14 -79.5h-87q0 50 -32 84.5t-99 40.5v-351q70 5 101.5 40t31.5 86h87q0 -43 -13 -80.5t-40 -66t-68.5 -46.5t-98.5 -21v-211h-67v212zM257 424
q-58 -9 -93.5 -49t-35.5 -123q0 -43 9.5 -74t27 -52t41 -32.5t51.5 -16.5v347z" />
    <glyph glyph-name="sterling" unicode="&#xa3;" horiz-adv-x="675" 
d="M120 305h-110v67h110v33q0 150 66 230t202 80q62 0 110 -14t81 -45t50.5 -80t17.5 -119h-93q0 53 -15 85.5t-40 50.5t-55.5 24t-62.5 6q-89 0 -126.5 -55.5t-37.5 -164.5v-31h116v-67h-116v-215h438v-90h-535v305z" />
    <glyph glyph-name="yen" unicode="&#xa5;" horiz-adv-x="637" 
d="M270 134h-115v67h115v53h-115v67h115v22l-270 357h118l200 -265l201 265h118l-270 -357v-22h111v-67h-111v-53h111v-67h-111v-134h-97v134z" />
    <glyph glyph-name="minus" unicode="&#x2212;" horiz-adv-x="340" 
d="M30 271h280v-67h-280v67z" />
    <glyph glyph-name="plusminus" unicode="&#xb1;" horiz-adv-x="360" 
d="M30 346h117v117h66v-117h117v-66h-117v-117h-66v117h-117v66zM40 67h280v-67h-280v67z" />
    <glyph glyph-name="multiply" unicode="&#xd7;" horiz-adv-x="319" 
d="M77 410l83 -82l82 82l47 -47l-82 -82l82 -83l-47 -47l-82 82l-83 -82l-47 47l82 83l-82 82z" />
    <glyph glyph-name="divide" unicode="&#xf7;" horiz-adv-x="340" 
d="M107 417q0 32 15 48t48 16t48 -16t15 -48t-15 -47.5t-48 -15.5t-48 15.5t-15 47.5zM30 274h280v-67h-280v67zM107 64q0 32 15 47.5t48 15.5t48 -15.5t15 -47.5t-15 -47.5t-48 -15.5t-48 15.5t-15 47.5z" />
    <glyph glyph-name="exclamdown" unicode="&#xa1;" horiz-adv-x="193" 
d="M30 473q0 34 16 50.5t51 16.5t50.5 -16.5t15.5 -50.5q0 -33 -15.5 -49.5t-50.5 -16.5t-51 16.5t-16 49.5zM50 -175l10 460h73l10 -460h-93z" />
    <glyph glyph-name="questiondown" unicode="&#xbf;" horiz-adv-x="554" 
d="M404 473q0 -33 -16 -49.5t-51 -16.5t-50.5 16.5t-15.5 49.5q0 34 15.5 50.5t50.5 16.5t51 -16.5t16 -50.5zM384 285q0 -51 -18.5 -83.5t-46.5 -54t-61 -35.5t-61 -29t-46.5 -34t-18.5 -51q0 -44 30 -70t105 -26q32 0 61.5 4.5t52.5 19.5t36.5 44t13.5 78h93
q0 -66 -17.5 -111.5t-50 -73.5t-80 -40.5t-107.5 -12.5q-123 0 -181 46t-58 136q0 50 20.5 81t50.5 52t66 35.5t66 30.5t50.5 37.5t20.5 56.5h80z" />
    <glyph glyph-name="currency" unicode="&#xa4;" horiz-adv-x="498" 
d="M69 341q0 26 9 51t25 47l-73 73l48 48l73 -73q22 16 47 25t51 9t51 -9t47 -25l73 73l48 -48l-73 -73q16 -22 25 -47t9 -51t-9 -51t-25 -47l73 -73l-48 -48l-73 73q-22 -16 -47 -25t-51 -9t-51 9t-48 25l-72 -73l-48 48l73 72q-16 23 -25 48t-9 51zM253 450
q-21 0 -41.5 -10t-36 -25.5t-25.5 -36t-10 -41.5q0 -20 9 -39t23.5 -33.5t33.5 -23.5t39 -9q21 0 41.5 10t36 25.5t25.5 36t10 41.5q0 20 -9 39t-23.5 33.5t-33.5 23.5t-39 9z" />
    <glyph glyph-name="dotlessi" unicode="&#x131;" horiz-adv-x="193" 
d="M50 500h93v-500h-93v500z" />
    <glyph glyph-name="ordfeminine" unicode="&#xaa;" horiz-adv-x="318" 
d="M227 618q0 17 -6.5 26.5t-16 14t-21 6t-21.5 1.5t-21 -1t-20.5 -5.5t-15.5 -13t-6 -23.5h-55q0 51 32 72.5t87 21.5q63 0 94 -23t31 -84v-151h-61v33q-8 -18 -27.5 -29t-59.5 -11q-24 0 -44 3.5t-34.5 12.5t-23 24t-8.5 39q0 38 28.5 55.5t80.5 22.5zM227 574l-78 -8
q-24 -2 -39.5 -9.5t-15.5 -24.5q0 -14 12.5 -21t41.5 -7q39 0 57.5 12t21.5 26v32z" />
    <glyph glyph-name="ordmasculine" unicode="&#xba;" horiz-adv-x="341" 
d="M30 584q0 133 141 133q140 0 140 -133q0 -132 -140 -132q-141 0 -141 132zM94 584q0 -75 77 -75t77 75q0 76 -77 76q-41 0 -59 -19t-18 -57z" />
    <glyph glyph-name="Thorn" unicode="&#xde;" horiz-adv-x="678" 
d="M50 700h97v-117h216q76 0 130 -14.5t88.5 -44t50.5 -73t16 -101.5q0 -115 -66 -174t-219 -59h-216v-117h-97v700zM364 207q52 0 87 9t56.5 26.5t30.5 44.5t9 63t-9 63t-30.5 44.5t-56.5 26.5t-87 9h-217v-286h217z" />
    <glyph glyph-name="thorn" unicode="&#xfe;" horiz-adv-x="513" 
d="M-17 -200v950h94v-322q22 42 63.5 64.5t110.5 22.5q52 0 95 -17t73.5 -50.5t47 -83t16.5 -114.5t-19 -114.5t-51.5 -83t-75 -50.5t-89.5 -17q-69 0 -109.5 24.5t-61.5 66.5v-276h-94zM385 251q0 87 -36 131.5t-117 44.5q-76 0 -115.5 -44.5t-39.5 -131.5q0 -88 39.5 -133
t115.5 -45q69 0 111 45t42 133z" />
    <glyph glyph-name="germandbls" unicode="&#xdf;" horiz-adv-x="634" 
d="M522 562q0 -35 -14.5 -60t-35.5 -42.5t-46.5 -29t-46.5 -20t-35.5 -15.5t-14.5 -15t9.5 -15t24.5 -12.5t34 -10t38 -8.5q42 -9 74 -22.5t53 -34.5t31.5 -51.5t10.5 -73.5q0 -84 -49 -125.5t-145 -41.5q-113 0 -165.5 43.5t-52.5 141.5h87q0 -29 10 -48.5t27.5 -31.5
t40 -17.5t47.5 -5.5q30 0 52 7t36 19t20.5 27t6.5 31q0 26 -7.5 42t-22 26t-35.5 17t-48 14t-55.5 14.5t-52 20.5t-39 33t-15.5 51q0 27 14 44t34.5 29t45 22t45 22.5t34.5 30.5t14 46q0 39 -32.5 69t-100.5 30q-53 0 -85.5 -13.5t-50 -37.5t-23.5 -56t-6 -70v-485h-93v478
q0 65 13 115.5t42 85.5t75.5 53t113.5 18q127 0 182.5 -45t55.5 -143z" />
    <glyph glyph-name="AE" unicode="&#xc6;" horiz-adv-x="928" 
d="M274 700h621v-90h-443v-215h403v-90h-403v-215h453v-90h-550v131h-215l-55 -131h-105zM355 221v389h-14l-163 -389h177z" />
    <glyph glyph-name="Eth" unicode="&#xd0;" horiz-adv-x="768" 
d="M109 305h-99v67h99v328h280q165 0 257 -88.5t92 -261.5t-92 -261.5t-257 -88.5h-280v305zM399 90q109 0 173 65.5t64 195.5q0 129 -64 194t-173 65h-193v-238h105v-67h-105v-215h193z" />
    <glyph glyph-name="Dcroat" unicode="&#x110;" horiz-adv-x="768" 
d="M109 305h-99v67h99v328h280q165 0 257 -88.5t92 -261.5t-92 -261.5t-257 -88.5h-280v305zM399 90q109 0 173 65.5t64 195.5q0 129 -64 194t-173 65h-193v-238h105v-67h-105v-215h193z" />
    <glyph glyph-name="OE" unicode="&#x152;" horiz-adv-x="1033" 
d="M1009 90v-90h-626q-180 0 -266.5 85.5t-86.5 264.5t86.5 264.5t266.5 85.5h616v-90h-443v-215h403v-90h-403v-215h453zM459 610h-76q-130 0 -190.5 -63.5t-60.5 -196.5t61.5 -196.5t189.5 -63.5h76v520z" />
    <glyph glyph-name="eth" unicode="&#xf0;" horiz-adv-x="626" 
d="M281 743q29 -11 59 -27t59 -36l74 56l40 -53l-61 -46q30 -28 56.5 -63t46 -78t30.5 -94t11 -111q0 -68 -17 -124t-52 -96.5t-89.5 -63t-128.5 -22.5q-72 0 -124.5 16t-87 46t-51 72.5t-16.5 95.5q0 60 24.5 99.5t63.5 63.5t87.5 34t96.5 10q54 0 100.5 -12t84.5 -32
q-13 67 -42 117t-66 86l-93 -71l-41 53l81 61q-22 16 -44 28t-42 21zM494 270q-27 24 -73 42t-121 18q-37 0 -67.5 -7.5t-53 -22t-35 -36.5t-12.5 -51q0 -25 7.5 -49t27 -43.5t53.5 -31.5t86 -12q94 0 139 49t49 144z" />
    <glyph glyph-name="Oslash" unicode="&#xd8;" horiz-adv-x="767" 
d="M30 350q0 180 87.5 272.5t265.5 92.5q132 0 213 -51l48 59l52 -42l-47 -58q88 -91 88 -273q0 -181 -87 -273t-267 -92q-131 0 -212 51l-48 -59l-52 42l47 58q-88 91 -88 273zM132 350q0 -125 53 -191l348 428q-57 36 -150 36q-130 0 -190.5 -69t-60.5 -204zM233 113
q59 -36 150 -36q128 0 190 68.5t62 204.5q0 124 -54 191z" />
    <glyph glyph-name="Lslash" unicode="&#x141;" horiz-adv-x="699" 
d="M143 242l-98 -59l-35 58l133 80v379h96v-321l89 54l35 -58l-124 -75v-210h440v-90h-536v242z" />
    <glyph glyph-name="ae" unicode="&#xe6;" horiz-adv-x="980" 
d="M426 320q0 40 -14.5 62.5t-37 34t-48 14t-48.5 2.5q-24 0 -49.5 -2.5t-46.5 -13t-34.5 -32t-13.5 -58.5h-87q0 50 16 85.5t46 58.5t72.5 33.5t95.5 10.5q77 0 129 -18t80 -58q67 76 201 76q140 0 201.5 -70t61.5 -204v-20h-424q3 -43 17 -72.5t37 -47.5t54.5 -26t71.5 -8
q33 0 60.5 8t48 22.5t31.5 33.5t11 40l87 -1q0 -83 -61 -134t-178 -51q-165 0 -233 95q-26 -42 -81.5 -68.5t-147.5 -26.5q-49 0 -90 7t-70.5 24.5t-46 47.5t-16.5 75q0 74 57 110.5t172 49.5l177 19v2zM855 294q-8 76 -51.5 107.5t-112.5 31.5q-61 0 -106.5 -34.5
t-56.5 -104.5h327zM258 230q-28 -3 -53 -9.5t-44.5 -17t-31 -25.5t-11.5 -37q0 -16 6 -30t21.5 -23.5t41.5 -15t66 -5.5q47 0 79.5 9.5t52.5 24.5t29.5 32.5t11.5 32.5v82z" />
    <glyph glyph-name="dcroat" unicode="&#x111;" horiz-adv-x="645" 
d="M457 78q-23 -43 -65.5 -68t-115.5 -25q-52 0 -97 17t-78 50.5t-52 83t-19 114.5q0 131 63 198t179 67q75 0 118.5 -23.5t66.5 -66.5v132h-107v67h107v126h93v-126h85v-67h-85v-557h-93v78zM128 251q0 -88 41 -133t122 -45q83 0 124.5 45t41.5 133q0 87 -41.5 131.5
t-124.5 44.5q-46 0 -77.5 -11.5t-50.5 -33.5t-27 -55t-8 -76z" />
    <glyph glyph-name="lslash" unicode="&#x142;" horiz-adv-x="364" 
d="M135 0v306l-93 -52l-32 59l125 69v368h93v-316l93 51l33 -58l-126 -70v-357h-93z" />
    <glyph glyph-name="oe" unicode="&#x153;" horiz-adv-x="1040" 
d="M30 250q0 131 68 198t209 67q162 0 229 -90q68 89 211 89q141 0 202 -70t61 -204v-20h-424q3 -43 17 -72.5t37 -47.5t54.5 -26t71.5 -8q33 0 60.5 8t48 22.5t31.5 33.5t11 40l87 -1q0 -83 -61 -134t-178 -51q-160 0 -229 90q-68 -89 -229 -89q-141 0 -209 67t-68 198z
M915 293q-8 76 -51.5 108t-111.5 32q-63 0 -107.5 -35t-56.5 -105h327zM128 250q0 -88 44 -132.5t135 -44.5t135.5 44.5t44.5 132.5t-44.5 132.5t-135.5 44.5q-93 0 -136 -44.5t-43 -132.5z" />
    <glyph glyph-name="oslash" unicode="&#xf8;" horiz-adv-x="615" 
d="M30 250q0 131 68 198t209 67q24 0 45.5 -2t41.5 -6l45 93h74l-54 -114q126 -58 126 -236q0 -131 -68.5 -198t-209.5 -67q-24 0 -45 2t-41 6l-45 -93h-74l54 113q-126 58 -126 237zM128 250q0 -54 17.5 -91.5t53.5 -57.5l155 321q-13 2 -26 3.5t-28 0.5q-89 -2 -130.5 -46
t-41.5 -130zM262 78q11 -2 25 -3t28 -1q87 2 129.5 46.5t42.5 129.5q0 109 -70 148z" />
    <glyph glyph-name="s_t" unicode="&#xfb06;" horiz-adv-x="1035" 
d="M32 371q0 76 60 110t170 34q69 0 117 -12q-9 30 -14.5 59.5t-5.5 55.5q0 60 22 98.5t54.5 60t69 29.5t65.5 8q56 0 91 -15.5t55 -39.5t27 -52.5t7 -54.5v-152h257v-87h-257v-223q0 -21 2.5 -42t10.5 -37.5t24.5 -27t43.5 -10.5q18 0 34.5 5.5t29 19t19.5 36t7 56.5h87
q0 -58 -12.5 -97.5t-36 -63.5t-56.5 -34t-75 -10q-81 0 -126 42.5t-45 145.5v240h-130v87h130l13 87l-13 6q8 81 -10 115t-79 34q-28 0 -51.5 -11t-40 -29t-25.5 -41.5t-9 -49.5q0 -45 13.5 -88.5t29.5 -87.5q26 -39 26 -105h-86q0 60 -46 81.5t-131 21.5q-41 0 -66.5 -5.5
t-40 -14t-19.5 -19.5t-5 -22q0 -12 8.5 -23t27.5 -21t50.5 -19t77.5 -18q54 -10 98 -20t74.5 -26.5t47 -43t16.5 -69.5q0 -80 -58.5 -113.5t-170.5 -33.5q-135 0 -196.5 43.5t-61.5 141.5h87q0 -29 13.5 -48.5t37.5 -31.5t57 -17.5t73 -5.5q74 0 104 17t30 45
q0 21 -11.5 32.5t-33.5 19t-54.5 13.5t-74.5 14q-41 8 -81.5 18.5t-72.5 28.5t-52 46t-20 70z" />
    <glyph glyph-name="t_t" horiz-adv-x="916" 
d="M149 413h-129v87h129l27 200h67v-200h294l27 200h67v-200h257v-87h-257v-223q0 -21 2.5 -42t10.5 -37.5t24 -27t43 -10.5q38 0 64.5 25t26.5 92h87q0 -58 -12.5 -97.5t-36 -63.5t-57 -34t-74.5 -10q-40 0 -72 10t-54.5 32.5t-34 58.5t-11.5 87v240h-294v-223
q0 -21 2.5 -42t10.5 -37.5t24 -27t43 -10.5q38 0 64.5 25t26.5 92h87q0 -58 -12.5 -97.5t-36 -63.5t-57 -34t-74.5 -10q-40 0 -72 10t-54.5 32.5t-34 58.5t-11.5 87v240z" />
    <glyph glyph-name="o_o" horiz-adv-x="1072" 
d="M30 250q0 131 68 198t209 67q161 0 229 -89q66 89 228 89q141 0 209.5 -67t68.5 -198t-68.5 -198t-209.5 -67q-162 0 -228 89q-68 -89 -229 -89q-141 0 -209 67t-68 198zM128 250q0 -88 44 -132.5t135 -44.5t135.5 44.5t44.5 132.5t-44.5 132.5t-135.5 44.5
q-93 0 -136 -44.5t-43 -132.5zM585 250q0 -88 44 -132.5t135 -44.5t135 44.5t44 132.5t-44 132.5t-135 44.5q-94 0 -136.5 -44.5t-42.5 -132.5z" />
    <glyph glyph-name="tildecomb" unicode="&#x303;" horiz-adv-x="0" 
d="M-192 500q0 29 5 56.5t18 48.5t34 33.5t53 12.5q31 0 54.5 -14.5t43 -32.5t37 -32.5t36.5 -14.5q24 0 30.5 24t6.5 60h67q0 -30 -4 -57.5t-14.5 -48t-29 -33t-46.5 -12.5q-35 0 -58 14.5t-41 32.5t-35.5 32.5t-42.5 14.5q-9 0 -17 -3.5t-15 -13t-11 -26t-4 -41.5h-67z
" />
    <glyph glyph-name="acutecomb" unicode="&#x301;" horiz-adv-x="0" 
d="M37 722l54 -39l-144 -184l-38 27z" />
    <glyph glyph-name="gravecomb" unicode="&#x300;" horiz-adv-x="0" 
d="M53 499l-144 184l54 39l128 -196z" />
    <glyph glyph-name="uni030C" unicode="&#x30c;" horiz-adv-x="0" 
d="M-178 702h77l101 -156l101 156h76l-148 -202h-58z" />
    <glyph glyph-name="uni0302" unicode="&#x302;" horiz-adv-x="0" 
d="M178 500h-77l-101 155l-101 -155h-76l148 202h58z" />
    <glyph glyph-name="uni0308" unicode="&#x308;" horiz-adv-x="0" 
d="M-144 570q0 20 15 35t35 15q21 0 35.5 -15t14.5 -35t-14.5 -35t-35.5 -15q-20 0 -35 15t-15 35zM47 570q0 20 15 35t35 15q21 0 35.5 -15t14.5 -35t-14.5 -35t-35.5 -15q-20 0 -35 15t-15 35z" />
    <glyph glyph-name="uni030A" unicode="&#x30a;" horiz-adv-x="0" 
d="M-133 605q0 48 36.5 76.5t96.5 28.5q61 0 97.5 -28.5t36.5 -76.5t-36.5 -76.5t-97.5 -28.5q-60 0 -96.5 28.5t-36.5 76.5zM-62 605q0 -20 17 -32.5t45 -12.5q29 0 45.5 12.5t16.5 32.5t-16.5 32.5t-45.5 12.5q-28 0 -45 -12.5t-17 -32.5z" />
    <glyph glyph-name="uni0327" unicode="&#x327;" horiz-adv-x="0" 
d="M33 0l-27 -59q18 0 35.5 -3.5t31 -13t22 -26t8.5 -41.5q0 -51 -27 -73.5t-72 -22.5q-6 0 -23 1.5t-34 9.5t-30.5 24.5t-13.5 45.5h56q0 -12 13.5 -18t27.5 -6q42 0 42 38q0 23 -19 31.5t-50 8.5h-36l39 104h57z" />
    <glyph glyph-name="Agrave" unicode="&#xc0;" horiz-adv-x="652" 
d="M380 774l-145 184l54 39l129 -196zM274 700h105l293 -700h-105l-55 131h-372l-55 -131h-105zM475 221l-149 354l-148 -354h297z" />
    <glyph glyph-name="Aacute" unicode="&#xc1;" horiz-adv-x="652" 
d="M364 997l54 -39l-145 -184l-38 27zM274 700h105l293 -700h-105l-55 131h-372l-55 -131h-105zM475 221l-149 354l-148 -354h297z" />
    <glyph glyph-name="Acircumflex" unicode="&#xc2;" horiz-adv-x="652" 
d="M504 775h-76l-102 155l-100 -155h-77l149 202h58zM274 700h105l293 -700h-105l-55 131h-372l-55 -131h-105zM475 221l-149 354l-148 -354h297z" />
    <glyph glyph-name="Atilde" unicode="&#xc3;" horiz-adv-x="652" 
d="M134 775q0 29 5.5 56.5t18 48.5t34 33.5t52.5 12.5t54.5 -14.5t43 -32.5t37 -32.5t36.5 -14.5q25 0 31.5 24t6.5 60h66q0 -30 -4 -57.5t-14.5 -48t-28.5 -33t-46 -12.5q-35 0 -58 14.5t-41 32.5t-35.5 32.5t-42.5 14.5q-18 0 -33 -17t-15 -67h-67zM274 700h105l293 -700
h-105l-55 131h-372l-55 -131h-105zM475 221l-149 354l-148 -354h297z" />
    <glyph glyph-name="Adieresis" unicode="&#xc4;" horiz-adv-x="652" 
d="M183 845q0 20 14.5 35t35.5 15q20 0 35 -15t15 -35t-15 -35t-35 -15q-21 0 -35.5 15t-14.5 35zM374 845q0 20 14.5 35t35.5 15q20 0 35 -15t15 -35t-15 -35t-35 -15q-21 0 -35.5 15t-14.5 35zM274 700h105l293 -700h-105l-55 131h-372l-55 -131h-105zM475 221l-149 354
l-148 -354h297z" />
    <glyph glyph-name="Aring" unicode="&#xc5;" horiz-adv-x="652" 
d="M193 880q0 48 36.5 76.5t96.5 28.5q61 0 98 -28.5t37 -76.5t-37 -76.5t-98 -28.5q-60 0 -96.5 28.5t-36.5 76.5zM264 880q0 -20 17 -32.5t45 -12.5q29 0 46 12.5t17 32.5t-17 32.5t-46 12.5q-28 0 -45 -12.5t-17 -32.5zM274 700h105l293 -700h-105l-55 131h-372l-55 -131
h-105zM475 221l-149 354l-148 -354h297z" />
    <glyph glyph-name="Ccedilla" unicode="&#xc7;" horiz-adv-x="733" 
d="M332 -158q0 -12 13.5 -18t27.5 -6q41 0 41 38q0 23 -18.5 31.5t-49.5 8.5h-36l34 91q-160 13 -237 103t-77 261q0 185 85 274.5t259 89.5q80 0 142.5 -14t105 -45t65 -80t22.5 -119h-93q0 53 -21.5 85.5t-57 50.5t-79.5 24t-89 6q-65 0 -110 -16t-73.5 -49t-41 -84
t-12.5 -122q0 -145 66.5 -210t205.5 -65q39 0 77.5 5.5t69.5 22t50 47.5t19 82h93q0 -70 -22.5 -117.5t-63.5 -76.5t-99 -42t-129 -13l-20 -44q18 0 35 -3.5t31 -13t22.5 -26t8.5 -41.5q0 -51 -27 -73.5t-72 -22.5q-6 0 -23 1.5t-34.5 9.5t-31 24.5t-13.5 45.5h57z" />
    <glyph glyph-name="Egrave" unicode="&#xc8;" horiz-adv-x="623" 
d="M378 774l-144 184l54 39l128 -196zM50 700h540v-90h-443v-215h403v-90h-403v-215h453v-90h-550v700z" />
    <glyph glyph-name="Eacute" unicode="&#xc9;" horiz-adv-x="623" 
d="M362 997l54 -39l-144 -184l-38 27zM50 700h540v-90h-443v-215h403v-90h-403v-215h453v-90h-550v700z" />
    <glyph glyph-name="Ecircumflex" unicode="&#xca;" horiz-adv-x="623" 
d="M503 775h-77l-101 155l-101 -155h-76l148 202h58zM50 700h540v-90h-443v-215h403v-90h-403v-215h453v-90h-550v700z" />
    <glyph glyph-name="Edieresis" unicode="&#xcb;" horiz-adv-x="623" 
d="M181 845q0 20 15 35t35 15q21 0 35.5 -15t14.5 -35t-14.5 -35t-35.5 -15q-20 0 -35 15t-15 35zM372 845q0 20 15 35t35 15q21 0 35.5 -15t14.5 -35t-14.5 -35t-35.5 -15q-20 0 -35 15t-15 35zM50 700h540v-90h-443v-215h403v-90h-403v-215h453v-90h-550v700z" />
    <glyph glyph-name="Igrave" unicode="&#xcc;" horiz-adv-x="283" 
d="M195 774l-145 184l54 39l129 -196zM93 700h97v-700h-97v700z" />
    <glyph glyph-name="Iacute" unicode="&#xcd;" horiz-adv-x="283" 
d="M179 997l54 -39l-145 -184l-38 27zM93 700h97v-700h-97v700z" />
    <glyph glyph-name="Icircumflex" unicode="&#xce;" horiz-adv-x="455" 
d="M405 775h-77l-101 155l-101 -155h-76l148 202h58zM179 700h96v-700h-96v700z" />
    <glyph glyph-name="Idieresis" unicode="&#xcf;" horiz-adv-x="391" 
d="M50 845q0 20 15 35t35 15t35 -15t15 -35t-15 -35t-35 -15t-35 15t-15 35zM241 845q0 20 15 35t35 15t35 -15t15 -35t-15 -35t-35 -15t-35 15t-15 35zM145 700h97v-700h-97v700z" />
    <glyph glyph-name="Ntilde" unicode="&#xd1;" horiz-adv-x="695" 
d="M155 725q0 29 5 56.5t18 48.5t34 33.5t53 12.5q31 0 54.5 -14.5t43 -32.5t37 -32.5t36.5 -14.5q24 0 30.5 24t6.5 60h67q0 -30 -4 -57.5t-14.5 -48t-29 -33t-46.5 -12.5q-35 0 -58 14.5t-41 32.5t-35.5 32.5t-42.5 14.5q-9 0 -17 -3.5t-15 -13t-11 -26t-4 -41.5h-67z
M50 700h97l401 -540v540h97v-700h-97l-401 541v-541h-97v700z" />
    <glyph glyph-name="Ograve" unicode="&#xd2;" horiz-adv-x="767" 
d="M437 789l-145 184l54 39l129 -196zM30 350q0 180 87.5 272.5t265.5 92.5q180 0 267 -92t87 -273t-87 -273t-267 -92q-178 0 -265.5 92.5t-87.5 272.5zM132 350q0 -136 61.5 -204.5t189.5 -68.5t190 68.5t62 204.5t-62 204.5t-190 68.5q-130 0 -190.5 -69t-60.5 -204z" />
    <glyph glyph-name="Oacute" unicode="&#xd3;" horiz-adv-x="767" 
d="M421 1012l54 -39l-145 -184l-38 27zM30 350q0 180 87.5 272.5t265.5 92.5q180 0 267 -92t87 -273t-87 -273t-267 -92q-178 0 -265.5 92.5t-87.5 272.5zM132 350q0 -136 61.5 -204.5t189.5 -68.5t190 68.5t62 204.5t-62 204.5t-190 68.5q-130 0 -190.5 -69t-60.5 -204z
" />
    <glyph glyph-name="Ocircumflex" unicode="&#xd4;" horiz-adv-x="767" 
d="M561 790h-76l-102 155l-100 -155h-77l149 202h58zM30 350q0 180 87.5 272.5t265.5 92.5q180 0 267 -92t87 -273t-87 -273t-267 -92q-178 0 -265.5 92.5t-87.5 272.5zM132 350q0 -136 61.5 -204.5t189.5 -68.5t190 68.5t62 204.5t-62 204.5t-190 68.5q-130 0 -190.5 -69
t-60.5 -204z" />
    <glyph glyph-name="Otilde" unicode="&#xd5;" horiz-adv-x="767" 
d="M191 790q0 29 5.5 56.5t18 48.5t34 33.5t52.5 12.5t54.5 -14.5t43 -32.5t37 -32.5t36.5 -14.5q25 0 31.5 24t6.5 60h66q0 -30 -4 -57.5t-14.5 -48t-28.5 -33t-46 -12.5q-35 0 -58 14.5t-41 32.5t-35.5 32.5t-42.5 14.5q-18 0 -33 -17t-15 -67h-67zM30 350
q0 180 87.5 272.5t265.5 92.5q180 0 267 -92t87 -273t-87 -273t-267 -92q-178 0 -265.5 92.5t-87.5 272.5zM132 350q0 -136 61.5 -204.5t189.5 -68.5t190 68.5t62 204.5t-62 204.5t-190 68.5q-130 0 -190.5 -69t-60.5 -204z" />
    <glyph glyph-name="Odieresis" unicode="&#xd6;" horiz-adv-x="767" 
d="M240 860q0 20 14.5 35t35.5 15q20 0 35 -15t15 -35t-15 -35t-35 -15q-21 0 -35.5 15t-14.5 35zM431 860q0 20 14.5 35t35.5 15q20 0 35 -15t15 -35t-15 -35t-35 -15q-21 0 -35.5 15t-14.5 35zM30 350q0 180 87.5 272.5t265.5 92.5q180 0 267 -92t87 -273t-87 -273
t-267 -92q-178 0 -265.5 92.5t-87.5 272.5zM132 350q0 -136 61.5 -204.5t189.5 -68.5t190 68.5t62 204.5t-62 204.5t-190 68.5q-130 0 -190.5 -69t-60.5 -204z" />
    <glyph glyph-name="Scaron" unicode="&#x160;" horiz-adv-x="663" 
d="M154 992h76l102 -156l100 156h77l-149 -202h-58zM310 304q-60 13 -110 27t-86 37t-56 58.5t-20 89.5q0 106 71.5 152.5t226.5 46.5q68 0 121.5 -12.5t90.5 -40.5t57 -73.5t20 -111.5h-93q0 48 -16.5 76t-44.5 43t-64.5 19.5t-77.5 4.5q-54 0 -90.5 -6.5t-58.5 -19
t-31.5 -31.5t-9.5 -43q0 -26 13.5 -44t39.5 -31.5t64.5 -22.5t88.5 -17q70 -12 124 -27.5t90.5 -40t55 -61t18.5 -89.5q0 -107 -74 -154.5t-232 -47.5q-69 0 -124 12.5t-93.5 40.5t-59 73.5t-20.5 111.5h93q0 -49 17.5 -78t47 -44t68 -19.5t80.5 -4.5q99 0 147 25t48 79
q0 39 -22 60.5t-55 33t-72 17t-72 12.5z" />
    <glyph glyph-name="Ugrave" unicode="&#xd9;" horiz-adv-x="691" 
d="M399 774l-145 184l54 39l129 -196zM345 77q99 0 154 45t55 150v428h97v-414q0 -87 -22.5 -144.5t-63 -92.5t-97 -49.5t-123.5 -14.5t-123 14.5t-96.5 49.5t-63 92.5t-22.5 144.5v414h97v-428q0 -105 54.5 -150t153.5 -45z" />
    <glyph glyph-name="Uacute" unicode="&#xda;" horiz-adv-x="691" 
d="M383 997l54 -39l-145 -184l-38 27zM345 77q99 0 154 45t55 150v428h97v-414q0 -87 -22.5 -144.5t-63 -92.5t-97 -49.5t-123.5 -14.5t-123 14.5t-96.5 49.5t-63 92.5t-22.5 144.5v414h97v-428q0 -105 54.5 -150t153.5 -45z" />
    <glyph glyph-name="Ucircumflex" unicode="&#xdb;" horiz-adv-x="691" 
d="M523 775h-76l-102 155l-100 -155h-77l149 202h58zM345 77q99 0 154 45t55 150v428h97v-414q0 -87 -22.5 -144.5t-63 -92.5t-97 -49.5t-123.5 -14.5t-123 14.5t-96.5 49.5t-63 92.5t-22.5 144.5v414h97v-428q0 -105 54.5 -150t153.5 -45z" />
    <glyph glyph-name="Udieresis" unicode="&#xdc;" horiz-adv-x="691" 
d="M202 845q0 20 14.5 35t35.5 15q20 0 35 -15t15 -35t-15 -35t-35 -15q-21 0 -35.5 15t-14.5 35zM393 845q0 20 14.5 35t35.5 15q20 0 35 -15t15 -35t-15 -35t-35 -15q-21 0 -35.5 15t-14.5 35zM345 77q99 0 154 45t55 150v428h97v-414q0 -87 -22.5 -144.5t-63 -92.5
t-97 -49.5t-123.5 -14.5t-123 14.5t-96.5 49.5t-63 92.5t-22.5 144.5v414h97v-428q0 -105 54.5 -150t153.5 -45z" />
    <glyph glyph-name="Ydieresis" unicode="&#x178;" horiz-adv-x="637" 
d="M175 845q0 20 14.5 35t35.5 15q20 0 35 -15t15 -35t-15 -35t-35 -15q-21 0 -35.5 15t-14.5 35zM366 845q0 20 14.5 35t35.5 15q20 0 35 -15t15 -35t-15 -35t-35 -15q-21 0 -35.5 15t-14.5 35zM270 343l-270 357h118l200 -265l201 265h118l-270 -357v-343h-97v343z" />
    <glyph glyph-name="Yacute" unicode="&#xdd;" horiz-adv-x="637" 
d="M356 997l54 -39l-145 -184l-38 27zM270 343l-270 357h118l200 -265l201 265h118l-270 -357v-343h-97v343z" />
    <glyph glyph-name="Zcaron" unicode="&#x17d;" horiz-adv-x="620" 
d="M132 977h77l101 -156l101 156h76l-148 -202h-58zM30 700h560v-90l-431 -520h431v-90h-560v90l431 520h-431v90z" />
    <glyph glyph-name="agrave" unicode="&#xe0;" horiz-adv-x="560" 
d="M324 589l-145 184l54 39l129 -196zM426 320q0 40 -14.5 62.5t-37 34t-48 14t-48.5 2.5q-24 0 -49.5 -2.5t-46.5 -13t-34.5 -32t-13.5 -58.5h-87q0 50 16 85.5t46 58.5t72.5 33.5t95.5 10.5q122 0 182.5 -47.5t60.5 -158.5v-309h-94v69q-7 -19 -20.5 -34.5t-35.5 -26.5
t-53 -17t-74 -6q-49 0 -90 7t-70.5 24.5t-46 47.5t-16.5 75q0 74 57 110.5t172 49.5l177 19v2zM258 230q-28 -3 -53 -9.5t-44.5 -17t-31 -25.5t-11.5 -37q0 -16 6 -30t21.5 -23.5t41.5 -15t66 -5.5q47 0 79.5 9.5t52.5 24.5t29.5 32.5t11.5 32.5v82z" />
    <glyph glyph-name="aacute" unicode="&#xe1;" horiz-adv-x="560" 
d="M308 812l54 -39l-145 -184l-38 27zM426 320q0 40 -14.5 62.5t-37 34t-48 14t-48.5 2.5q-24 0 -49.5 -2.5t-46.5 -13t-34.5 -32t-13.5 -58.5h-87q0 50 16 85.5t46 58.5t72.5 33.5t95.5 10.5q122 0 182.5 -47.5t60.5 -158.5v-309h-94v69q-7 -19 -20.5 -34.5t-35.5 -26.5
t-53 -17t-74 -6q-49 0 -90 7t-70.5 24.5t-46 47.5t-16.5 75q0 74 57 110.5t172 49.5l177 19v2zM258 230q-28 -3 -53 -9.5t-44.5 -17t-31 -25.5t-11.5 -37q0 -16 6 -30t21.5 -23.5t41.5 -15t66 -5.5q47 0 79.5 9.5t52.5 24.5t29.5 32.5t11.5 32.5v82z" />
    <glyph glyph-name="acircumflex" unicode="&#xe2;" horiz-adv-x="560" 
d="M448 590h-76l-102 155l-100 -155h-77l149 202h58zM426 320q0 40 -14.5 62.5t-37 34t-48 14t-48.5 2.5q-24 0 -49.5 -2.5t-46.5 -13t-34.5 -32t-13.5 -58.5h-87q0 50 16 85.5t46 58.5t72.5 33.5t95.5 10.5q122 0 182.5 -47.5t60.5 -158.5v-309h-94v69q-7 -19 -20.5 -34.5
t-35.5 -26.5t-53 -17t-74 -6q-49 0 -90 7t-70.5 24.5t-46 47.5t-16.5 75q0 74 57 110.5t172 49.5l177 19v2zM258 230q-28 -3 -53 -9.5t-44.5 -17t-31 -25.5t-11.5 -37q0 -16 6 -30t21.5 -23.5t41.5 -15t66 -5.5q47 0 79.5 9.5t52.5 24.5t29.5 32.5t11.5 32.5v82z" />
    <glyph glyph-name="atilde" unicode="&#xe3;" horiz-adv-x="560" 
d="M78 590q0 29 5.5 56.5t18 48.5t34 33.5t52.5 12.5t54.5 -14.5t43 -32.5t37 -32.5t36.5 -14.5q25 0 31.5 24t6.5 60h66q0 -30 -4 -57.5t-14.5 -48t-28.5 -33t-46 -12.5q-35 0 -58 14.5t-41 32.5t-35.5 32.5t-42.5 14.5q-18 0 -33 -17t-15 -67h-67zM426 320
q0 40 -14.5 62.5t-37 34t-48 14t-48.5 2.5q-24 0 -49.5 -2.5t-46.5 -13t-34.5 -32t-13.5 -58.5h-87q0 50 16 85.5t46 58.5t72.5 33.5t95.5 10.5q122 0 182.5 -47.5t60.5 -158.5v-309h-94v69q-7 -19 -20.5 -34.5t-35.5 -26.5t-53 -17t-74 -6q-49 0 -90 7t-70.5 24.5t-46 47.5
t-16.5 75q0 74 57 110.5t172 49.5l177 19v2zM258 230q-28 -3 -53 -9.5t-44.5 -17t-31 -25.5t-11.5 -37q0 -16 6 -30t21.5 -23.5t41.5 -15t66 -5.5q47 0 79.5 9.5t52.5 24.5t29.5 32.5t11.5 32.5v82z" />
    <glyph glyph-name="adieresis" unicode="&#xe4;" horiz-adv-x="560" 
d="M127 660q0 20 14.5 35t35.5 15q20 0 35 -15t15 -35t-15 -35t-35 -15q-21 0 -35.5 15t-14.5 35zM318 660q0 20 14.5 35t35.5 15q20 0 35 -15t15 -35t-15 -35t-35 -15q-21 0 -35.5 15t-14.5 35zM426 320q0 40 -14.5 62.5t-37 34t-48 14t-48.5 2.5q-24 0 -49.5 -2.5
t-46.5 -13t-34.5 -32t-13.5 -58.5h-87q0 50 16 85.5t46 58.5t72.5 33.5t95.5 10.5q122 0 182.5 -47.5t60.5 -158.5v-309h-94v69q-7 -19 -20.5 -34.5t-35.5 -26.5t-53 -17t-74 -6q-49 0 -90 7t-70.5 24.5t-46 47.5t-16.5 75q0 74 57 110.5t172 49.5l177 19v2zM258 230
q-28 -3 -53 -9.5t-44.5 -17t-31 -25.5t-11.5 -37q0 -16 6 -30t21.5 -23.5t41.5 -15t66 -5.5q47 0 79.5 9.5t52.5 24.5t29.5 32.5t11.5 32.5v82z" />
    <glyph glyph-name="aring" unicode="&#xe5;" horiz-adv-x="560" 
d="M137 695q0 48 36.5 76.5t96.5 28.5q61 0 98 -28.5t37 -76.5t-37 -76.5t-98 -28.5q-60 0 -96.5 28.5t-36.5 76.5zM208 695q0 -20 17 -32.5t45 -12.5q29 0 46 12.5t17 32.5t-17 32.5t-46 12.5q-28 0 -45 -12.5t-17 -32.5zM426 320q0 40 -14.5 62.5t-37 34t-48 14t-48.5 2.5
q-24 0 -49.5 -2.5t-46.5 -13t-34.5 -32t-13.5 -58.5h-87q0 50 16 85.5t46 58.5t72.5 33.5t95.5 10.5q122 0 182.5 -47.5t60.5 -158.5v-309h-94v69q-7 -19 -20.5 -34.5t-35.5 -26.5t-53 -17t-74 -6q-49 0 -90 7t-70.5 24.5t-46 47.5t-16.5 75q0 74 57 110.5t172 49.5l177 19
v2zM258 230q-28 -3 -53 -9.5t-44.5 -17t-31 -25.5t-11.5 -37q0 -16 6 -30t21.5 -23.5t41.5 -15t66 -5.5q47 0 79.5 9.5t52.5 24.5t29.5 32.5t11.5 32.5v82z" />
    <glyph glyph-name="ccedilla" unicode="&#xe7;" horiz-adv-x="564" 
d="M298 515q60 0 105.5 -16.5t76.5 -46t46.5 -68.5t15.5 -84h-87q0 55 -38.5 91t-119.5 36q-37 0 -68.5 -9t-53.5 -30t-34.5 -54.5t-12.5 -81.5q0 -51 13.5 -85t37 -55t55.5 -30t68 -9q81 0 118 36t37 91h87q0 -44 -13.5 -82.5t-42 -67t-71.5 -46t-103 -19.5l-21 -44
q18 0 35.5 -3.5t31.5 -13t22.5 -26t8.5 -41.5q0 -51 -27.5 -73.5t-72.5 -22.5q-6 0 -22.5 1.5t-34 9.5t-31 24.5t-13.5 45.5h57q0 -12 13 -18t27 -6q42 0 42 38q0 23 -18.5 31.5t-49.5 8.5h-36l33 91q-112 11 -170 77t-58 186q0 133 64 199t204 66z" />
    <glyph glyph-name="egrave" unicode="&#xe8;" horiz-adv-x="583" 
d="M345 589l-145 184l54 39l129 -196zM553 221h-424q8 -86 54.5 -120t125.5 -34q33 0 61 8t48 22.5t31.5 33.5t11.5 40l86 -1q0 -83 -60.5 -134t-177.5 -51q-141 0 -210 67.5t-69 198.5q0 128 67 196t194 68q140 0 201 -70t61 -204v-20zM459 294q-4 38 -17.5 64.5t-35 43
t-49.5 24t-62 7.5q-63 0 -107.5 -34.5t-55.5 -104.5h327z" />
    <glyph glyph-name="eacute" unicode="&#xe9;" horiz-adv-x="583" 
d="M329 812l54 -39l-145 -184l-38 27zM553 221h-424q8 -86 54.5 -120t125.5 -34q33 0 61 8t48 22.5t31.5 33.5t11.5 40l86 -1q0 -83 -60.5 -134t-177.5 -51q-141 0 -210 67.5t-69 198.5q0 128 67 196t194 68q140 0 201 -70t61 -204v-20zM459 294q-4 38 -17.5 64.5t-35 43
t-49.5 24t-62 7.5q-63 0 -107.5 -34.5t-55.5 -104.5h327z" />
    <glyph glyph-name="ecircumflex" unicode="&#xea;" horiz-adv-x="583" 
d="M469 590h-76l-102 155l-100 -155h-76l148 202h58zM553 221h-424q8 -86 54.5 -120t125.5 -34q33 0 61 8t48 22.5t31.5 33.5t11.5 40l86 -1q0 -83 -60.5 -134t-177.5 -51q-141 0 -210 67.5t-69 198.5q0 128 67 196t194 68q140 0 201 -70t61 -204v-20zM459 294
q-4 38 -17.5 64.5t-35 43t-49.5 24t-62 7.5q-63 0 -107.5 -34.5t-55.5 -104.5h327z" />
    <glyph glyph-name="edieresis" unicode="&#xeb;" horiz-adv-x="583" 
d="M148 660q0 20 15 35t35 15t35 -15t15 -35t-15 -35t-35 -15t-35 15t-15 35zM339 660q0 20 15 35t35 15t35 -15t15 -35t-15 -35t-35 -15t-35 15t-15 35zM553 221h-424q8 -86 54.5 -120t125.5 -34q33 0 61 8t48 22.5t31.5 33.5t11.5 40l86 -1q0 -83 -60.5 -134t-177.5 -51
q-141 0 -210 67.5t-69 198.5q0 128 67 196t194 68q140 0 201 -70t61 -204v-20zM459 294q-4 38 -17.5 64.5t-35 43t-49.5 24t-62 7.5q-63 0 -107.5 -34.5t-55.5 -104.5h327z" />
    <glyph glyph-name="igrave" unicode="&#xec;" horiz-adv-x="283" 
d="M195 574l-145 184l54 39l129 -196zM95 500h93v-500h-93v500z" />
    <glyph glyph-name="iacute" unicode="&#xed;" horiz-adv-x="283" 
d="M179 797l54 -39l-145 -184l-38 27zM95 500h93v-500h-93v500z" />
    <glyph glyph-name="icircumflex" unicode="&#xee;" horiz-adv-x="455" 
d="M405 575h-77l-101 155l-101 -155h-76l148 202h58zM180 500h94v-500h-94v500z" />
    <glyph glyph-name="idieresis" unicode="&#xef;" horiz-adv-x="391" 
d="M50 645q0 20 15 35t35 15t35 -15t15 -35t-15 -35t-35 -15t-35 15t-15 35zM241 645q0 20 15 35t35 15t35 -15t15 -35t-15 -35t-35 -15t-35 15t-15 35zM147 500h93v-500h-93v500z" />
    <glyph glyph-name="ntilde" unicode="&#xf1;" horiz-adv-x="603" 
d="M108 590q0 29 5.5 56.5t18 48.5t34 33.5t52.5 12.5t54.5 -14.5t43 -32.5t37 -32.5t36.5 -14.5q25 0 31.5 24t6.5 60h66q0 -30 -4 -57.5t-14.5 -48t-28.5 -33t-46 -12.5q-35 0 -58 14.5t-41 32.5t-35.5 32.5t-42.5 14.5q-18 0 -33 -17t-15 -67h-67zM457 0v275
q0 34 -6.5 62t-23 48t-46 31t-74.5 11q-81 0 -122.5 -44.5t-41.5 -131.5v-251h-93v500h93v-72q26 42 70.5 64.5t115.5 22.5q114 0 167.5 -55.5t53.5 -178.5v-281h-93z" />
    <glyph glyph-name="ograve" unicode="&#xf2;" horiz-adv-x="615" 
d="M361 589l-144 184l54 39l128 -196zM30 250q0 131 68 198t209 67t209.5 -67t68.5 -198t-68.5 -198t-209.5 -67t-209 67t-68 198zM128 250q0 -88 44 -132.5t135 -44.5t135.5 44.5t44.5 132.5t-44.5 132.5t-135.5 44.5q-93 0 -136 -44.5t-43 -132.5z" />
    <glyph glyph-name="oacute" unicode="&#xf3;" horiz-adv-x="615" 
d="M345 812l54 -39l-144 -184l-38 27zM30 250q0 131 68 198t209 67t209.5 -67t68.5 -198t-68.5 -198t-209.5 -67t-209 67t-68 198zM128 250q0 -88 44 -132.5t135 -44.5t135.5 44.5t44.5 132.5t-44.5 132.5t-135.5 44.5q-93 0 -136 -44.5t-43 -132.5z" />
    <glyph glyph-name="ocircumflex" unicode="&#xf4;" horiz-adv-x="615" 
d="M486 590h-77l-101 155l-101 -155h-76l148 202h58zM30 250q0 131 68 198t209 67t209.5 -67t68.5 -198t-68.5 -198t-209.5 -67t-209 67t-68 198zM128 250q0 -88 44 -132.5t135 -44.5t135.5 44.5t44.5 132.5t-44.5 132.5t-135.5 44.5q-93 0 -136 -44.5t-43 -132.5z" />
    <glyph glyph-name="otilde" unicode="&#xf5;" horiz-adv-x="615" 
d="M116 590q0 29 5 56.5t18 48.5t34 33.5t53 12.5q31 0 54.5 -14.5t43 -32.5t37 -32.5t36.5 -14.5q24 0 30.5 24t6.5 60h67q0 -30 -4 -57.5t-14.5 -48t-29 -33t-46.5 -12.5q-35 0 -58 14.5t-41 32.5t-35.5 32.5t-42.5 14.5q-9 0 -17 -3.5t-15 -13t-11 -26t-4 -41.5h-67z
M30 250q0 131 68 198t209 67t209.5 -67t68.5 -198t-68.5 -198t-209.5 -67t-209 67t-68 198zM128 250q0 -88 44 -132.5t135 -44.5t135.5 44.5t44.5 132.5t-44.5 132.5t-135.5 44.5q-93 0 -136 -44.5t-43 -132.5z" />
    <glyph glyph-name="odieresis" unicode="&#xf6;" horiz-adv-x="615" 
d="M164 660q0 20 15 35t35 15q21 0 35.5 -15t14.5 -35t-14.5 -35t-35.5 -15q-20 0 -35 15t-15 35zM355 660q0 20 15 35t35 15q21 0 35.5 -15t14.5 -35t-14.5 -35t-35.5 -15q-20 0 -35 15t-15 35zM30 250q0 131 68 198t209 67t209.5 -67t68.5 -198t-68.5 -198t-209.5 -67
t-209 67t-68 198zM128 250q0 -88 44 -132.5t135 -44.5t135.5 44.5t44.5 132.5t-44.5 132.5t-135.5 44.5q-93 0 -136 -44.5t-43 -132.5z" />
    <glyph glyph-name="scaron" unicode="&#x161;" horiz-adv-x="547" 
d="M96 792h76l102 -156l100 156h76l-148 -202h-58zM32 371q0 76 60 110t170 34q128 0 188.5 -43.5t60.5 -141.5h-86q0 60 -46 81.5t-131 21.5q-41 0 -66.5 -5.5t-40 -14t-19.5 -19.5t-5 -22q0 -12 8.5 -23t27.5 -21t50.5 -19t77.5 -18q54 -10 98 -20t74.5 -26.5t47 -43
t16.5 -69.5q0 -80 -58.5 -113.5t-170.5 -33.5q-135 0 -196.5 43.5t-61.5 141.5h87q0 -29 13.5 -48.5t37.5 -31.5t57 -17.5t73 -5.5q74 0 104 17t30 45q0 21 -11.5 32.5t-33.5 19t-54.5 13.5t-74.5 14q-41 8 -81.5 18.5t-72.5 28.5t-52 46t-20 70z" />
    <glyph glyph-name="ugrave" unicode="&#xf9;" horiz-adv-x="590" 
d="M344 574l-145 184l54 39l129 -196zM133 500v-275q0 -34 6.5 -62t23 -48t46 -31t74.5 -11q81 0 122.5 44.5t41.5 131.5v251h93v-500h-93v72q-26 -42 -70.5 -64.5t-115.5 -22.5q-114 0 -167.5 55.5t-53.5 178.5v281h93z" />
    <glyph glyph-name="uacute" unicode="&#xfa;" horiz-adv-x="590" 
d="M328 797l54 -39l-145 -184l-38 27zM133 500v-275q0 -34 6.5 -62t23 -48t46 -31t74.5 -11q81 0 122.5 44.5t41.5 131.5v251h93v-500h-93v72q-26 -42 -70.5 -64.5t-115.5 -22.5q-114 0 -167.5 55.5t-53.5 178.5v281h93z" />
    <glyph glyph-name="ucircumflex" unicode="&#xfb;" horiz-adv-x="590" 
d="M468 575h-76l-102 155l-100 -155h-77l149 202h58zM133 500v-275q0 -34 6.5 -62t23 -48t46 -31t74.5 -11q81 0 122.5 44.5t41.5 131.5v251h93v-500h-93v72q-26 -42 -70.5 -64.5t-115.5 -22.5q-114 0 -167.5 55.5t-53.5 178.5v281h93z" />
    <glyph glyph-name="udieresis" unicode="&#xfc;" horiz-adv-x="590" 
d="M147 645q0 20 14.5 35t35.5 15q20 0 35 -15t15 -35t-15 -35t-35 -15q-21 0 -35.5 15t-14.5 35zM338 645q0 20 14.5 35t35.5 15q20 0 35 -15t15 -35t-15 -35t-35 -15q-21 0 -35.5 15t-14.5 35zM133 500v-275q0 -34 6.5 -62t23 -48t46 -31t74.5 -11q81 0 122.5 44.5
t41.5 131.5v251h93v-500h-93v72q-26 -42 -70.5 -64.5t-115.5 -22.5q-114 0 -167.5 55.5t-53.5 178.5v281h93z" />
    <glyph glyph-name="yacute" unicode="&#xfd;" horiz-adv-x="540" 
d="M310 797l54 -39l-145 -184l-38 27zM370 14q-20 -57 -37 -102.5t-38.5 -77t-53.5 -48t-82 -16.5q-38 0 -65.5 14.5t-45 40.5t-26 61.5t-8.5 76.5h84q0 -34 5 -55.5t14 -34t20.5 -17t23.5 -4.5q19 0 33 8.5t25 24.5t19.5 37t17.5 47l13 37l-264 494h106l200 -373l131 373
h98z" />
    <glyph glyph-name="ydieresis" unicode="&#xff;" horiz-adv-x="540" 
d="M129 645q0 20 14.5 35t35.5 15q20 0 35 -15t15 -35t-15 -35t-35 -15q-21 0 -35.5 15t-14.5 35zM320 645q0 20 14.5 35t35.5 15q20 0 35 -15t15 -35t-15 -35t-35 -15q-21 0 -35.5 15t-14.5 35zM370 14q-20 -57 -37 -102.5t-38.5 -77t-53.5 -48t-82 -16.5q-38 0 -65.5 14.5
t-45 40.5t-26 61.5t-8.5 76.5h84q0 -34 5 -55.5t14 -34t20.5 -17t23.5 -4.5q19 0 33 8.5t25 24.5t19.5 37t17.5 47l13 37l-264 494h106l200 -373l131 373h98z" />
    <glyph glyph-name="zcaron" unicode="&#x17e;" horiz-adv-x="497" 
d="M71 777h76l102 -156l100 156h76l-148 -202h-58zM30 500h437v-87l-308 -326h308v-87h-437v87l308 326h-308v87z" />
    <glyph glyph-name="agrave.ss01" 
d="M344 589l-145 184l54 39l129 -196zM457 78q-23 -43 -65.5 -68t-115.5 -25q-52 0 -97 17t-78 50.5t-52 83t-19 114.5q0 131 63 198t179 67q75 0 118.5 -23.5t66.5 -66.5v75h93v-500h-93v78zM128 251q0 -88 41 -133t122 -45q83 0 124.5 45t41.5 133q0 87 -41.5 131.5
t-124.5 44.5q-46 0 -77.5 -11.5t-50.5 -33.5t-27 -55t-8 -76z" />
    <glyph glyph-name="aacute.ss01" 
d="M328 812l54 -39l-145 -184l-38 27zM457 78q-23 -43 -65.5 -68t-115.5 -25q-52 0 -97 17t-78 50.5t-52 83t-19 114.5q0 131 63 198t179 67q75 0 118.5 -23.5t66.5 -66.5v75h93v-500h-93v78zM128 251q0 -88 41 -133t122 -45q83 0 124.5 45t41.5 133q0 87 -41.5 131.5
t-124.5 44.5q-46 0 -77.5 -11.5t-50.5 -33.5t-27 -55t-8 -76z" />
    <glyph glyph-name="acircumflex.ss01" 
d="M468 590h-76l-102 155l-100 -155h-77l149 202h58zM457 78q-23 -43 -65.5 -68t-115.5 -25q-52 0 -97 17t-78 50.5t-52 83t-19 114.5q0 131 63 198t179 67q75 0 118.5 -23.5t66.5 -66.5v75h93v-500h-93v78zM128 251q0 -88 41 -133t122 -45q83 0 124.5 45t41.5 133
q0 87 -41.5 131.5t-124.5 44.5q-46 0 -77.5 -11.5t-50.5 -33.5t-27 -55t-8 -76z" />
    <glyph glyph-name="atilde.ss01" 
d="M98 590q0 29 5.5 56.5t18 48.5t34 33.5t52.5 12.5t54.5 -14.5t43 -32.5t37 -32.5t36.5 -14.5q25 0 31.5 24t6.5 60h66q0 -30 -4 -57.5t-14.5 -48t-28.5 -33t-46 -12.5q-35 0 -58 14.5t-41 32.5t-35.5 32.5t-42.5 14.5q-18 0 -33 -17t-15 -67h-67zM457 78
q-23 -43 -65.5 -68t-115.5 -25q-52 0 -97 17t-78 50.5t-52 83t-19 114.5q0 131 63 198t179 67q75 0 118.5 -23.5t66.5 -66.5v75h93v-500h-93v78zM128 251q0 -88 41 -133t122 -45q83 0 124.5 45t41.5 133q0 87 -41.5 131.5t-124.5 44.5q-46 0 -77.5 -11.5t-50.5 -33.5
t-27 -55t-8 -76z" />
    <glyph glyph-name="adieresis.ss01" 
d="M147 660q0 20 14.5 35t35.5 15q20 0 35 -15t15 -35t-15 -35t-35 -15q-21 0 -35.5 15t-14.5 35zM338 660q0 20 14.5 35t35.5 15q20 0 35 -15t15 -35t-15 -35t-35 -15q-21 0 -35.5 15t-14.5 35zM457 78q-23 -43 -65.5 -68t-115.5 -25q-52 0 -97 17t-78 50.5t-52 83
t-19 114.5q0 131 63 198t179 67q75 0 118.5 -23.5t66.5 -66.5v75h93v-500h-93v78zM128 251q0 -88 41 -133t122 -45q83 0 124.5 45t41.5 133q0 87 -41.5 131.5t-124.5 44.5q-46 0 -77.5 -11.5t-50.5 -33.5t-27 -55t-8 -76z" />
    <glyph glyph-name="aring.ss01" 
d="M157 695q0 48 36.5 76.5t96.5 28.5q61 0 98 -28.5t37 -76.5t-37 -76.5t-98 -28.5q-60 0 -96.5 28.5t-36.5 76.5zM228 695q0 -20 17 -32.5t45 -12.5q29 0 46 12.5t17 32.5t-17 32.5t-46 12.5q-28 0 -45 -12.5t-17 -32.5zM457 78q-23 -43 -65.5 -68t-115.5 -25
q-52 0 -97 17t-78 50.5t-52 83t-19 114.5q0 131 63 198t179 67q75 0 118.5 -23.5t66.5 -66.5v75h93v-500h-93v78zM128 251q0 -88 41 -133t122 -45q83 0 124.5 45t41.5 133q0 87 -41.5 131.5t-124.5 44.5q-46 0 -77.5 -11.5t-50.5 -33.5t-27 -55t-8 -76z" />
    <glyph glyph-name="yacute.ss02" horiz-adv-x="586" 
d="M330 797l54 -39l-144 -184l-38 27zM137 500v-249q0 -31 6.5 -56.5t23 -43.5t46 -28t74.5 -10q164 0 164 139v8h2v235h93v-472q0 -67 -16 -112t-48 -72t-79.5 -38.5t-109.5 -11.5q-132 0 -192 43.5t-60 141.5h87q0 -59 43 -81.5t118 -22.5q36 0 66 6.5t52 22.5t34 44
t12 70v89q-26 -37 -71 -57t-117 -20q-114 0 -167.5 51.5t-53.5 163.5v260h93z" />
    <glyph glyph-name="ydieresis.ss02" horiz-adv-x="586" 
d="M149 645q0 20 15 35t35 15q21 0 35.5 -15t14.5 -35t-14.5 -35t-35.5 -15q-20 0 -35 15t-15 35zM340 645q0 20 15 35t35 15q21 0 35.5 -15t14.5 -35t-14.5 -35t-35.5 -15q-20 0 -35 15t-15 35zM137 500v-249q0 -31 6.5 -56.5t23 -43.5t46 -28t74.5 -10q164 0 164 139v8h2
v235h93v-472q0 -67 -16 -112t-48 -72t-79.5 -38.5t-109.5 -11.5q-132 0 -192 43.5t-60 141.5h87q0 -59 43 -81.5t118 -22.5q36 0 66 6.5t52 22.5t34 44t12 70v89q-26 -37 -71 -57t-117 -20q-114 0 -167.5 51.5t-53.5 163.5v260h93z" />
    <glyph glyph-name="tilde" unicode="&#x2dc;" horiz-adv-x="445" 
d="M30 500q0 29 5 56.5t18 48.5t34 33.5t53 12.5q31 0 54.5 -14.5t43 -32.5t37 -32.5t36.5 -14.5q24 0 30.5 24t6.5 60h67q0 -30 -4 -57.5t-14.5 -48t-29 -33t-46.5 -12.5q-35 0 -58 14.5t-41 32.5t-35.5 32.5t-42.5 14.5q-9 0 -17 -3.5t-15 -13t-11 -26t-4 -41.5h-67z" />
    <glyph glyph-name="acute" unicode="&#xb4;" horiz-adv-x="243" 
d="M159 722l54 -39l-145 -184l-38 27z" />
    <glyph glyph-name="grave" unicode="`" horiz-adv-x="243" 
d="M175 499l-145 184l54 39l129 -196z" />
    <glyph glyph-name="caron" unicode="&#x2c7;" horiz-adv-x="415" 
d="M30 702h76l102 -156l100 156h77l-149 -202h-58z" />
    <glyph glyph-name="circumflex" unicode="&#x2c6;" horiz-adv-x="415" 
d="M385 500h-77l-101 155l-101 -155h-76l148 202h58z" />
    <glyph glyph-name="dieresis" unicode="&#xa8;" horiz-adv-x="351" 
d="M30 570q0 20 15 35t35 15t35 -15t15 -35t-15 -35t-35 -15t-35 15t-15 35zM221 570q0 20 15 35t35 15t35 -15t15 -35t-15 -35t-35 -15t-35 15t-15 35z" />
    <glyph glyph-name="cedilla" unicode="&#xb8;" horiz-adv-x="261" 
d="M160 0l-27 -59q18 0 35.5 -3.5t31.5 -13t22.5 -26t8.5 -41.5q0 -51 -27.5 -73.5t-72.5 -22.5q-6 0 -22.5 1.5t-34 9.5t-31 24.5t-13.5 45.5h57q0 -12 13 -18t27 -6q42 0 42 38q0 23 -18.5 31.5t-49.5 8.5h-36l38 104h57z" />
    <glyph glyph-name="ring" unicode="&#x2da;" horiz-adv-x="328" 
d="M30 605q0 48 36.5 76.5t96.5 28.5q61 0 98 -28.5t37 -76.5t-37 -76.5t-98 -28.5q-60 0 -96.5 28.5t-36.5 76.5zM101 605q0 -20 17 -32.5t45 -12.5q29 0 46 12.5t17 32.5t-17 32.5t-46 12.5q-28 0 -45 -12.5t-17 -32.5z" />
    <glyph glyph-name="uni0002" horiz-adv-x="333" 
 />
    <glyph glyph-name="uni0009" unicode="&#x9;" horiz-adv-x="80" 
 />
    <glyph glyph-name="uni000A" unicode="&#xa;" horiz-adv-x="111" 
 />
    <glyph glyph-name="asciitilde" unicode="~" horiz-adv-x="643" 
d="M43 122q0 29 5.5 56.5t18.5 48.5t35.5 33.5t55.5 12.5q37 0 85.5 -14.5t96 -32.5t87.5 -32.5t60 -14.5q18 0 27 6.5t13.5 17.5t5 26.5t0.5 33.5h67q0 -30 -3.5 -57.5t-15 -48t-33.5 -33t-59 -12.5q-30 0 -74.5 14.5t-91.5 32.5t-90.5 32.5t-71.5 14.5q-20 0 -35.5 -17
t-15.5 -67h-67z" />
    <glyph glyph-name="brokenbar" unicode="&#xa6;" horiz-adv-x="127" 
d="M30 750h67v-333h-67v333zM97 -200h-67v333h67v-333z" />
    <glyph glyph-name="section" unicode="&#xa7;" horiz-adv-x="527" 
d="M32 356q0 39 20 64t55 39q-33 19 -54 45.5t-21 66.5q0 76 60 110t170 34q128 0 188.5 -43.5t60.5 -141.5h-86q0 60 -46 81.5t-131 21.5q-41 0 -66.5 -5.5t-40 -14t-19.5 -19.5t-5 -22q0 -27 36 -46.5t128 -37.5q54 -10 98 -18.5t74.5 -22.5t47 -38.5t16.5 -66.5
q0 -41 -17.5 -64t-48.5 -36q32 -17 49 -42.5t17 -67.5q0 -80 -58.5 -113.5t-170.5 -33.5q-135 0 -196.5 43.5t-61.5 141.5h87q0 -29 13.5 -48.5t37.5 -31.5t57 -17.5t73 -5.5q74 0 104 17t30 45q0 21 -11.5 33.5t-33.5 20.5t-54.5 14t-74.5 14q-41 8 -81.5 15.5t-72.5 22.5
t-52 40t-20 67zM281 288q83 0 117 14.5t34 37.5q0 17 -11.5 27t-33.5 17.5t-54.5 13.5t-74.5 13q-71 0 -106 -12.5t-35 -41.5q0 -12 8 -21.5t26.5 -17.5t50 -15t79.5 -15z" />
    <glyph glyph-name="guillemotleft" unicode="&#xab;" horiz-adv-x="499" 
d="M238 227l-121 -50l121 -50v-72l-208 86v72l208 86v-72zM469 227l-121 -50l121 -50v-72l-208 86v72l208 86v-72z" />
    <glyph glyph-name="guillemotright" unicode="&#xbb;" horiz-adv-x="499" 
d="M469 213v-72l-208 -86v72l121 50l-121 50v72zM238 213v-72l-208 -86v72l121 50l-121 50v72z" />
    <glyph glyph-name="logicalnot" unicode="&#xac;" horiz-adv-x="360" 
d="M30 314h300v-183h-67v116h-233v67z" />
    <glyph glyph-name="uni00AD" unicode="&#xad;" horiz-adv-x="340" 
d="M30 271h280v-67h-280v67z" />
    <glyph glyph-name="macron" unicode="&#xaf;" horiz-adv-x="320" 
d="M30 671h260v-67h-260v67z" />
    <glyph glyph-name="degree" unicode="&#xb0;" horiz-adv-x="359" 
d="M30 581q0 67 37 102t113 35t112.5 -35t36.5 -102q0 -137 -149 -137q-150 0 -150 137zM94 581q0 -76 86 -76q85 0 85 76t-85 76q-86 0 -86 -76z" />
    <glyph glyph-name="twosuperior" unicode="&#xb2;" horiz-adv-x="338" 
d="M31 461q0 30 8 50t23 34t37.5 23.5t50.5 19.5q45 15 68.5 27t23.5 37q0 20 -15 33t-52 13q-16 0 -30.5 -2t-25.5 -8t-18 -17.5t-7 -31.5h-61q0 66 37 92.5t103 26.5q69 0 102 -27t33 -81q0 -26 -9 -43.5t-25.5 -30t-39.5 -22t-52 -19.5q-16 -6 -32.5 -11.5t-29.5 -13.5
t-21.5 -19.5t-8.5 -29.5v-3h216v-58h-275v61z" />
    <glyph glyph-name="threesuperior" unicode="&#xb3;" horiz-adv-x="343" 
d="M165 605q25 0 40 4t23 11t10.5 16t2.5 18q0 22 -17 33t-48 11q-16 0 -30 -2t-24 -8t-15.5 -17.5t-5.5 -31.5h-61q0 66 34.5 92.5t98.5 26.5q134 0 134 -103q0 -48 -35 -77q19 -13 30 -32t11 -46q0 -57 -33.5 -82t-108.5 -25q-65 0 -103 26.5t-38 92.5h61q0 -20 6.5 -31.5
t18 -17.5t26.5 -8t32 -2q36 0 54.5 9t18.5 36q0 9 -3.5 17.5t-12.5 15t-25 11t-40 4.5h-40v59h39z" />
    <glyph glyph-name="onesuperior" unicode="&#xb9;" horiz-adv-x="199" 
d="M105 692h-75v58h139v-350h-64v292z" />
    <glyph glyph-name="uni00A0" unicode="&#xa0;" horiz-adv-x="260" 
 />
    <glyph glyph-name="uni2074" unicode="&#x2074;" horiz-adv-x="349" 
d="M215 484h-185v58l185 208h64v-208h40v-58h-40v-84h-64v84zM215 542v121l-107 -121h107z" />
    <glyph glyph-name="uni03BC" unicode="&#x3bc;" 
d="M143 500v-275q0 -34 6.5 -62t23 -48t46 -31t74.5 -11q81 0 122.5 44.5t41.5 131.5v251h93v-500h-93v72q-26 -42 -70.5 -64.5t-115.5 -22.5q-87 0 -128 42v-177h-93v650h93z" />
    <glyph glyph-name="paragraph" unicode="&#xb6;" horiz-adv-x="685" 
d="M585 -120v730h-50v-730h-70v320h-130q-87 0 -145.5 16t-94 47.5t-50.5 78t-15 108.5t15 108.5t50.5 78t94 47.5t145.5 16h320v-820h-70z" />
    <glyph glyph-name="periodcentered" unicode="&#xb7;" horiz-adv-x="187" 
d="M30 350q0 32 15 47.5t48 15.5q34 0 49 -15.5t15 -47.5t-15 -47.5t-49 -15.5q-33 0 -48 15.5t-15 47.5z" />
    <glyph glyph-name="onequarter" unicode="&#xbc;" horiz-adv-x="719" 
d="M497 700h76l-397 -700h-76zM105 642h-75v58h139v-350h-64v292zM585 84h-185v58l185 208h64v-208h40v-58h-40v-84h-64v84zM585 142v121l-108 -121h108z" />
    <glyph glyph-name="onehalf" unicode="&#xbd;" horiz-adv-x="755" 
d="M497 700h76l-397 -700h-76zM105 642h-75v58h139v-350h-64v292zM447 61q0 30 8 50t23 34t37.5 23.5t50.5 19.5q45 15 68.5 27t23.5 37q0 20 -15 33t-51 13q-16 0 -31 -2t-26 -8t-18 -17.5t-7 -31.5h-61q0 66 37 92.5t103 26.5q70 0 103 -27t33 -81q0 -26 -9 -43.5
t-25.5 -30t-39.5 -22t-52 -19.5q-16 -6 -33 -11.5t-30 -13.5t-21.5 -19.5t-8.5 -29.5v-3h217v-58h-276v61z" />
    <glyph glyph-name="threequarters" unicode="&#xbe;" horiz-adv-x="772" 
d="M165 555q25 0 40 4t23 11t10.5 16t2.5 18q0 22 -17 33t-48 11q-16 0 -30 -2t-24 -8t-15.5 -17.5t-5.5 -31.5h-61q0 66 34.5 92.5t98.5 26.5q134 0 134 -103q0 -48 -35 -77q19 -13 30 -32t11 -46q0 -57 -33.5 -82t-108.5 -25q-65 0 -103 26.5t-38 92.5h61q0 -20 6.5 -31.5
t18 -17.5t26.5 -8t32 -2q36 0 54.5 9t18.5 36q0 9 -3.5 17.5t-12.5 15t-25 11t-40 4.5h-40v59h39zM550 700h76l-397 -700h-76zM638 84h-185v58l185 208h64v-208h40v-58h-40v-84h-64v84zM638 142v121l-107 -121h107z" />
    </font>
</defs>
</svg>
